<?xml version="1.0" standalone="no"?>
<!DOCTYPE svg PUBLIC "-//W3C//DTD SVG 1.1//EN" "http://www.w3.org/Graphics/SVG/1.1/DTD/svg11.dtd" >
<svg xmlns="http://www.w3.org/2000/svg" xmlns:xlink="http://www.w3.org/1999/xlink" version="1.1">
<metadata>
Created by FontForge 20201107 at Wed Jan 18 18:29:48 2023
 By 
Copyright 2023 The Varela Round Project Authors (https://github.com/alefalefalef/Varela-Round-Hebrew/), with Reserved Font Names 'Varela' and 'Varela Round'.
</metadata>
<defs>
<font id="VarelaRound-Regular" horiz-adv-x="0" >
  <font-face 
    font-family="Varela Round"
    font-weight="400"
    font-stretch="normal"
    units-per-em="1000"
    panose-1="0 0 0 0 0 0 0 0 0 0"
    ascent="800"
    descent="-200"
    x-height="510"
    cap-height="703"
    bbox="-145 -286 1313 1025"
    underline-thickness="50"
    underline-position="-125"
    unicode-range="U+000D-FB4B"
  />
<missing-glyph horiz-adv-x="514" 
d="M72 0q-22 0 -37 15t-15 37v593q0 22 15 37.5t37 15.5h369q22 0 37.5 -15.5t15.5 -37.5v-593q0 -22 -15.5 -37t-37.5 -15h-369zM257 397l156 251h-313zM70 96l157 253l-157 253v-506zM444 96v506l-158 -253zM100 50h313l-156 252z" />
    <glyph glyph-name="fi" unicode="fi" horiz-adv-x="637" 
d="M162 -5q-19 0 -32 13t-13 32v392h-59q-16 0 -27.5 11.5t-11.5 27.5q0 17 11.5 28t27.5 11h59v58q0 63 22.5 101t57.5 54.5t70 16.5q25 0 47 -5.5t40 -14.5q9 -4 16 -13.5t7 -21.5q0 -14 -10.5 -26t-26.5 -12q-12 0 -24 3t-26 3q-37 0 -59.5 -17.5t-22.5 -70.5v-55h307
q19 -1 31 -14t12 -32v-424q0 -19 -13 -32t-33 -13q-19 0 -32 13t-13 32v392h-259v-392q0 -19 -13 -32t-33 -13zM510 614q-21 0 -36 15t-15 36v4q0 21 15 36t36 15h6q21 0 36 -15t15 -36v-4q0 -21 -15 -36t-36 -15h-6z" />
    <glyph glyph-name="fl" unicode="fl" horiz-adv-x="636" 
d="M162 -5q-19 0 -32 13t-13 32v392h-59q-16 0 -27.5 11.5t-11.5 27.5q0 17 11.5 28t27.5 11h59v58q0 63 22.5 101t57.5 54.5t70 16.5q25 0 47 -5.5t40 -14.5q9 -4 16 -13.5t7 -21.5q0 -14 -10.5 -26t-26.5 -12q-12 0 -24 3t-26 3q-37 0 -59.5 -17.5t-22.5 -70.5v-55h125
q17 0 28 -11t11 -28q0 -16 -11 -27.5t-28 -11.5h-125v-392q0 -19 -13 -32t-33 -13zM511 -5q-19 0 -32 13t-13 32v649q0 20 13 33t32 13q20 0 33 -13t13 -33v-649q0 -19 -13 -32t-33 -13z" />
    <glyph glyph-name="f_f" unicode="ff" horiz-adv-x="774" 
d="M162 -5q-19 0 -32 13t-13 32v392h-59q-16 0 -27.5 11.5t-11.5 27.5q0 17 11.5 28t27.5 11h59v58q0 63 22.5 101t57.5 54.5t70 16.5q25 0 47 -5.5t40 -14.5q9 -4 16 -13.5t7 -21.5q0 -14 -10.5 -26t-26.5 -12q-12 0 -24 3t-26 3q-37 0 -59.5 -17.5t-22.5 -70.5v-55h303v58
q0 63 22.5 101t57.5 54.5t70 16.5q25 0 47 -5.5t40 -14.5q9 -4 16 -13.5t7 -21.5q0 -14 -10.5 -26t-26.5 -12q-12 0 -24 3t-26 3q-37 0 -59.5 -17.5t-22.5 -70.5v-55h125q17 0 28 -11t11 -28q0 -16 -11 -27.5t-28 -11.5h-125v-392q0 -19 -13 -32t-33 -13q-19 0 -32 13
t-13 32v392h-303v-392q0 -19 -13 -32t-33 -13z" />
    <glyph glyph-name="f_f_i" unicode="ffi" horiz-adv-x="1031" 
d="M162 -5q-19 0 -32 13t-13 32v392h-59q-16 0 -27.5 11.5t-11.5 27.5q0 17 11.5 28t27.5 11h59v58q0 63 22.5 101t57.5 54.5t70 16.5q25 0 47 -5.5t40 -14.5q9 -4 16 -13.5t7 -21.5q0 -14 -10.5 -26t-26.5 -12q-12 0 -24 3t-26 3q-37 0 -59.5 -17.5t-22.5 -70.5v-55h303v58
q0 63 22.5 101t57.5 54.5t70 16.5q25 0 47 -5.5t40 -14.5q9 -4 16 -13.5t7 -21.5q0 -14 -10.5 -26t-26.5 -12q-12 0 -24 3t-26 3q-37 0 -59.5 -17.5t-22.5 -70.5v-55h304q20 0 33 -13t13 -33v-424q0 -19 -13 -32t-33 -13q-19 0 -32 13t-13 32v392h-259v-392q0 -19 -13 -32
t-33 -13q-19 0 -32 13t-13 32v392h-303v-392q0 -19 -13 -32t-33 -13zM904 614q-21 0 -36 15t-15 36v4q0 21 15 36t36 15h6q21 0 36 -15t15 -36v-4q0 -21 -15 -36t-36 -15h-6z" />
    <glyph glyph-name="f_f_l" unicode="ffl" horiz-adv-x="1030" 
d="M162 -5q-19 0 -32 13t-13 32v392h-59q-16 0 -27.5 11.5t-11.5 27.5q0 17 11.5 28t27.5 11h59v58q0 63 22.5 101t57.5 54.5t70 16.5q25 0 47 -5.5t40 -14.5q9 -4 16 -13.5t7 -21.5q0 -14 -10.5 -26t-26.5 -12q-12 0 -24 3t-26 3q-37 0 -59.5 -17.5t-22.5 -70.5v-55h303v58
q0 63 22.5 101t57.5 54.5t70 16.5q25 0 47 -5.5t40 -14.5q9 -4 16 -13.5t7 -21.5q0 -14 -10.5 -26t-26.5 -12q-12 0 -24 3t-26 3q-37 0 -59.5 -17.5t-22.5 -70.5v-55h125q17 0 28 -11t11 -28q0 -16 -11 -27.5t-28 -11.5h-125v-392q0 -19 -13 -32t-33 -13q-19 0 -32 13
t-13 32v392h-303v-392q0 -19 -13 -32t-33 -13zM905 -5q-19 0 -32 13t-13 32v649q0 20 13 33t32 13q20 0 33 -13t13 -33v-649q0 -19 -13 -32t-33 -13z" />
    <glyph glyph-name="f_j" unicode="fj" horiz-adv-x="637" 
d="M427 -240q-36 0 -63 9q-26 8 -26 36q0 15 11 26.5t27 11.5q7 0 14 -1.5t16 -1.5q26 0 43.5 9.5t17.5 49.5v533h-259v-392q0 -19 -13 -32t-33 -13q-19 0 -32 13t-13 32v392h-59q-16 0 -27.5 11.5t-11.5 27.5q0 17 11.5 28t27.5 11h59v58q0 63 22.5 101t57.5 54.5t70 16.5
q25 0 47 -5.5t40 -14.5q9 -4 16 -13.5t7 -21.5q0 -14 -10.5 -26t-26.5 -12q-12 0 -24 3t-26 3q-37 0 -59.5 -17.5t-22.5 -70.5v-55h307q19 -1 31 -14t12 -32v-567q0 -58 -29.5 -97.5t-101.5 -39.5zM510 614q-21 0 -36 15t-15 36v4q0 21 15 36t36 15h6q21 0 36 -15t15 -36v-4
q0 -21 -15 -36t-36 -15h-6z" />
    <glyph glyph-name=".notdef" horiz-adv-x="514" 
d="M72 0q-22 0 -37 15t-15 37v593q0 22 15 37.5t37 15.5h369q22 0 37.5 -15.5t15.5 -37.5v-593q0 -22 -15.5 -37t-37.5 -15h-369zM257 397l156 251h-313zM70 96l157 253l-157 253v-506zM444 96v506l-158 -253zM100 50h313l-156 252z" />
    <glyph glyph-name=".null" 
 />
    <glyph glyph-name="nonmarkingreturn" horiz-adv-x="333" 
 />
    <glyph glyph-name="NULL" 
 />
    <glyph glyph-name="NULL" 
 />
    <glyph glyph-name="CR" unicode="&#xd;" horiz-adv-x="260" 
 />
    <glyph glyph-name="space" unicode=" " horiz-adv-x="260" 
 />
    <glyph glyph-name="exclam" unicode="!" horiz-adv-x="281" 
d="M141 193q-16 0 -24.5 8t-9.5 21l-18 330v99q0 22 15 37t37 15t36.5 -15t14.5 -37v-99l-18 -330q-1 -13 -9 -21t-24 -8zM141 -4q-24 0 -41.5 17.5t-17.5 42.5q0 24 17.5 41.5t41.5 17.5q25 0 42.5 -17.5t17.5 -41.5q0 -25 -17.5 -42.5t-42.5 -17.5z" />
    <glyph glyph-name="quotedbl" unicode="&#x22;" horiz-adv-x="411" 
d="M300 492q-12 0 -19.5 7.5t-9.5 17.5q-4 22 -10 53.5t-9.5 65t-2.5 61.5q1 21 16 35.5t35 14.5t35.5 -14.5t15.5 -35.5q0 -28 -3.5 -61.5t-8.5 -65t-10 -53.5q-2 -10 -9.5 -17.5t-19.5 -7.5zM111 492q-12 0 -19.5 7.5t-9.5 17.5q-4 22 -9.5 53.5t-9 65t-3.5 61.5
q0 21 15.5 35.5t35.5 14.5t35.5 -14.5t15.5 -35.5q0 -28 -3.5 -61.5t-8.5 -65t-10 -53.5q-2 -10 -9.5 -17.5t-19.5 -7.5z" />
    <glyph glyph-name="numbersign" unicode="#" horiz-adv-x="612" 
d="M159 -5q-13 0 -24 10t-11 25q0 1 0.5 4.5t2.5 17t7 44.5t14 86h-77q-14 0 -24.5 10.5t-10.5 24.5t10.5 24.5t24.5 10.5h88l24 152h-77q-14 0 -24.5 10.5t-10.5 24.5t10.5 24.5t24.5 10.5h88l25 158q2 11 11.5 19.5t23.5 8.5q16 0 25.5 -10t9.5 -25q0 -1 -0.5 -5
t-2.5 -17.5t-7 -44t-14 -84.5h127l25 158q2 11 11.5 19.5t23.5 8.5q16 0 25.5 -10t9.5 -25q0 -1 -0.5 -5t-2.5 -17.5t-7 -44t-14 -84.5h77q14 0 24.5 -10.5t10.5 -24.5t-10.5 -24.5t-24.5 -10.5h-88l-24 -152h77q14 0 24.5 -10.5t10.5 -24.5t-10.5 -24.5t-24.5 -10.5h-88
l-25 -158q-2 -11 -11.5 -20t-23.5 -9q-13 0 -24 10t-11 25q0 1 0.5 4.5t2.5 17t7 44.5t14 86h-127l-25 -158q-2 -11 -11.5 -20t-23.5 -9zM230 252h127l24 152h-127z" />
    <glyph glyph-name="dollar" unicode="$" horiz-adv-x="616" 
d="M311 -110q-13 0 -21.5 8.5t-8.5 21.5v71q-63 4 -113.5 17.5t-88.5 29.5q-11 5 -19.5 16.5t-8.5 24.5q0 17 11 29.5t30 12.5q10 0 19 -4q30 -13 72.5 -25t97.5 -15v230q-41 11 -80.5 25.5t-72 36t-51.5 54t-19 80.5q0 51 25.5 95t75 73t122.5 35v71q0 13 8.5 22t21.5 9
q14 0 22.5 -9t8.5 -22v-69q51 -2 94.5 -11t79.5 -22q11 -4 19.5 -13t8.5 -27q0 -15 -10.5 -28.5t-29.5 -13.5q-4 0 -8 1.5t-8 2.5q-32 11 -68.5 18.5t-77.5 8.5v-238q42 -10 83 -23t74.5 -35t53.5 -56.5t20 -86.5q0 -53 -28.5 -95.5t-80.5 -68.5t-122 -30v-71
q0 -13 -8.5 -21.5t-22.5 -8.5zM149 510q0 -32 17.5 -52.5t47.5 -33.5t67 -23v220q-58 -8 -95 -36t-37 -75zM483 191q0 29 -19 47.5t-51 30.5t-71 23v-215q61 5 101 30.5t40 83.5z" />
    <glyph glyph-name="percent" unicode="%" horiz-adv-x="814" 
d="M204 357q-53 0 -89 24t-54 64.5t-18 90.5t18 90.5t54 64.5t89 24t89 -24t54 -64.5t18 -90.5t-18 -90.5t-54 -64.5t-89 -24zM204 -10q-13 0 -23 9.5t-10 23.5q0 9 5 17l407 651q10 16 28 16q15 0 24.5 -8t9.5 -22q0 -11 -7 -22l-404 -647q-4 -7 -12 -12.5t-18 -5.5z
M204 422q44 0 67.5 33t23.5 81t-23.5 81t-67.5 33t-67.5 -33t-23.5 -81t23.5 -81t67.5 -33zM610 -18q-53 0 -89 24t-54 64.5t-18 90.5t18 90.5t54 64.5t89 24t89 -24t54 -64.5t18 -90.5t-18 -90.5t-54 -64.5t-89 -24zM610 47q44 0 67.5 33t23.5 81t-23.5 81t-67.5 33
t-67.5 -33t-23.5 -81t23.5 -81t67.5 -33z" />
    <glyph glyph-name="ampersand" unicode="&#x26;" horiz-adv-x="732" 
d="M316 -10q-88 0 -142 31t-78.5 78.5t-24.5 96.5q0 52 20 90.5t47 64t46 37.5q-26 32 -43.5 65t-17.5 80t22.5 87t64.5 64t100 24q38 0 72 -13t61 -31q7 -4 12.5 -12t5.5 -18q0 -13 -10 -24t-25 -11q-8 0 -18 5q-19 11 -42.5 18.5t-51.5 7.5q-52 0 -79.5 -28.5t-27.5 -63.5
q0 -30 10 -52t32 -45.5t58 -57.5l209 -197q11 17 19 32.5t14 28.5q5 11 15.5 18t23.5 7q18 0 30 -11.5t12 -29.5q0 -10 -5 -20q-20 -43 -48 -82l67 -64q8 -7 12 -14t4 -18q0 -16 -10.5 -28.5t-30.5 -12.5q-18 0 -31 12l-67 64q-40 -34 -92 -56t-113 -22zM308 67
q49 0 87.5 16.5t66.5 39.5l-223 209q-18 -12 -37 -31.5t-32 -46t-13 -61.5q0 -37 20 -65.5t54.5 -44.5t76.5 -16z" />
    <glyph glyph-name="quotesingle" unicode="'" horiz-adv-x="222" 
d="M111 492q-12 0 -19.5 7.5t-9.5 17.5q-4 22 -9.5 53.5t-9 65t-3.5 61.5q0 21 15.5 35.5t35.5 14.5t35.5 -14.5t15.5 -35.5q0 -28 -3.5 -61.5t-8.5 -65t-10 -53.5q-2 -10 -9.5 -17.5t-19.5 -7.5z" />
    <glyph glyph-name="parenleft" unicode="(" horiz-adv-x="312" 
d="M225 -154q-13 0 -19.5 5t-13.5 13q-72 86 -106.5 202t-34.5 241t34.5 241.5t106.5 201.5q7 8 13.5 13t19.5 5q16 0 28 -11t12 -28q0 -11 -6 -22q-52 -86 -84.5 -187.5t-32.5 -212.5t32.5 -212.5t84.5 -187.5q6 -10 6 -22q0 -17 -12 -28t-28 -11z" />
    <glyph glyph-name="parenright" unicode=")" horiz-adv-x="312" 
d="M88 -154q-16 0 -28 11t-12 28q0 12 6 22q52 86 84.5 187.5t32.5 212.5t-32.5 212.5t-84.5 187.5q-6 11 -6 22q0 17 12 28t28 11q13 0 19.5 -5t13.5 -13q72 -85 106.5 -201.5t34.5 -241.5t-34.5 -241t-106.5 -202q-7 -8 -13.5 -13t-19.5 -5z" />
    <glyph glyph-name="asterisk" unicode="*" horiz-adv-x="417" 
d="M208 384q-11 0 -20.5 8t-9.5 21q0 1 0.5 6t4 27t11.5 73q-40 -32 -57 -46t-21.5 -17t-5.5 -4q-11 -6 -22.5 -2t-17.5 14q-5 10 -3 22t13 18q1 1 6 3t25.5 10t68.5 26q-48 19 -68.5 27t-25.5 10t-6 2q-11 7 -13 19t3 22q6 10 17.5 14t22.5 -3q1 0 5.5 -3.5t21.5 -17
t57 -46.5q-8 51 -11.5 73t-4 27t-0.5 6q0 13 9.5 21t20.5 8t20.5 -8t9.5 -21q0 -1 -0.5 -6t-4 -27t-11.5 -73q40 33 57.5 46.5t21.5 17t5 3.5q11 7 22.5 3t17.5 -14q5 -10 3 -22t-13 -19q-1 0 -6 -2t-25.5 -10t-68.5 -27q48 -18 68.5 -26t25.5 -10t6 -3q11 -6 13 -18t-3 -22
q-6 -10 -17.5 -14t-22.5 2q-1 1 -5 4t-21.5 17l-57.5 46q8 -51 11.5 -73t4 -27t0.5 -6q0 -13 -9.5 -21t-20.5 -8z" />
    <glyph glyph-name="plus" unicode="+" horiz-adv-x="562" 
d="M281 104q-16 0 -27.5 11.5t-11.5 27.5v164h-164q-16 0 -27 11t-11 27q0 17 11 28t27 11h164v164q0 17 11.5 28t27.5 11q17 0 28 -11t11 -28v-164h163q17 0 28 -11t11 -28q0 -16 -11 -27t-28 -11h-163v-164q0 -16 -11 -27.5t-28 -11.5z" />
    <glyph glyph-name="comma" unicode="," horiz-adv-x="260" 
d="M92 -151q-13 0 -21 9t-8 21q0 16 15 25q22 13 36.5 32.5t14.5 60.5h-4q-23 0 -39.5 16.5t-16.5 39.5v6q0 23 16.5 39.5t39.5 16.5h10q23 0 39.5 -16.5t16.5 -39.5v-59q0 -60 -26.5 -94t-55.5 -52q-2 -1 -7 -3t-10 -2z" />
    <glyph glyph-name="hyphen" unicode="-" horiz-adv-x="408" 
d="M109 240q-17 0 -28.5 11.5t-11.5 28.5t11.5 29t28.5 12h189q17 0 29 -12t12 -29t-12 -28.5t-29 -11.5h-189z" />
    <glyph glyph-name="period" unicode="." horiz-adv-x="260" 
d="M125 -3q-23 0 -39.5 16.5t-16.5 39.5v6q0 23 16.5 39.5t39.5 16.5h10q23 0 39.5 -16.5t16.5 -39.5v-6q0 -23 -16.5 -39.5t-39.5 -16.5h-10z" />
    <glyph glyph-name="slash" unicode="/" horiz-adv-x="443" 
d="M89 -95q-18 0 -29.5 12t-11.5 29q0 4 1 8.5t2 6.5l265 775q4 12 14 20t25 8q18 0 29.5 -12t11.5 -29q0 -4 -1 -8.5t-2 -6.5l-265 -775q-4 -12 -14 -20t-25 -8z" />
    <glyph glyph-name="zero" unicode="0" horiz-adv-x="628" 
d="M314 -10q-90 0 -150.5 45t-90.5 126t-30 188t30 188t90.5 126t150.5 45t150 -45t90.5 -126t30.5 -188t-30.5 -188t-90.5 -126t-150 -45zM314 74q89 0 134.5 74t45.5 201q0 126 -45.5 200t-134.5 74q-88 0 -134 -74t-46 -200q0 -127 46 -201t134 -74z" />
    <glyph glyph-name="one" unicode="1" horiz-adv-x="628" 
d="M177 0q-18 0 -30 12t-12 30t12 30.5t30 12.5h119v507l-102 -50l-10 -4t-13 -2q-19 0 -31 12t-12 31q0 28 26 41l136 71q14 7 28 7h21q20 0 34 -14t14 -34v-565h99q18 0 30.5 -12.5t12.5 -30.5t-12.5 -30t-30.5 -12h-309z" />
    <glyph glyph-name="two" unicode="2" horiz-adv-x="628" 
d="M118 0q-23 0 -38 14.5t-15 37.5q0 53 29 95.5t74.5 78t96.5 67.5t96.5 63.5t74.5 66t29 75.5q0 53 -35.5 88.5t-122.5 35.5q-51 0 -94 -10.5t-77 -25.5q-1 -1 -7 -3t-12 -2q-16 0 -27 11.5t-11 27.5q0 25 22 37q42 21 97.5 36t124.5 15q64 0 116 -25.5t83 -71t31 -106.5
q0 -51 -25 -94.5t-65.5 -80t-87.5 -69t-92 -61.5t-79 -57.5t-48 -57.5h348q18 0 30.5 -12.5t12.5 -30.5t-12.5 -30t-30.5 -12h-386z" />
    <glyph glyph-name="three" unicode="3" horiz-adv-x="628" 
d="M294 -10q-67 0 -119.5 12.5t-89.5 27.5q-11 5 -18.5 14.5t-7.5 23.5q0 16 11 29t29 13q9 0 19 -4q30 -12 70 -20.5t89 -8.5q44 0 86.5 9.5t70.5 33.5t28 68q0 37 -21 65.5t-69 44.5t-131 16h-16q-17 0 -29.5 12.5t-12.5 29.5t12.5 29.5t29.5 12.5h6q98 0 152 30t54 91
q0 47 -39 75.5t-119 28.5q-47 0 -85.5 -9.5t-69.5 -23.5q-4 -1 -8 -2.5t-10 -1.5q-15 0 -26 10.5t-11 26.5q0 23 20 34q35 19 85 35t113 16q116 0 178.5 -47t62.5 -133q0 -50 -18.5 -83.5t-46 -53t-56.5 -30.5q21 -5 46 -16t48 -31.5t37.5 -52.5t14.5 -78
q0 -64 -34.5 -106.5t-93 -64.5t-131.5 -22z" />
    <glyph glyph-name="four" unicode="4" horiz-adv-x="628" 
d="M433 -5q-19 0 -32 13t-13 32v136h-305q-24 0 -41 16.5t-17 40.5v9q0 21 12 36l314 401q8 11 21.5 17.5t28.5 6.5h20q26 0 42 -17t16 -41v-388h76q17 0 29 -12t12 -29t-12 -28.5t-29 -11.5h-76v-136q0 -19 -13.5 -32t-32.5 -13zM122 257h266v343z" />
    <glyph glyph-name="five" unicode="5" horiz-adv-x="628" 
d="M297 -10q-70 0 -122.5 17t-90.5 41q-7 5 -13.5 12.5t-6.5 23.5q0 17 11 30t29 13q11 0 21 -5q32 -17 72.5 -29.5t87.5 -12.5q59 0 103 13t68 43.5t24 84.5q0 62 -41.5 98t-113.5 36q-51 0 -90 -14t-64 -29q-7 -4 -15 -8t-20 -4q-28 0 -47 15.5t-19 42.5q0 12 2 24l45 266
q3 23 17.5 36.5t35.5 13.5h321q18 0 30.5 -12.5t12.5 -30.5t-12.5 -30t-30.5 -12h-290l-32 -212q31 17 72.5 29t96.5 12q76 0 127.5 -29.5t78.5 -80.5t27 -116q0 -64 -29 -115t-89.5 -81t-155.5 -30z" />
    <glyph glyph-name="six" unicode="6" horiz-adv-x="628" 
d="M333 -10q-74 0 -123.5 23.5t-79.5 63t-45.5 86.5t-20.5 95.5t-5 89.5q0 59 14.5 121.5t48 117t89.5 88t138 33.5q62 0 104.5 -13.5t72.5 -29.5q21 -10 21 -36q0 -16 -11 -28.5t-30 -12.5q-9 0 -17 3q-25 12 -58.5 20.5t-74.5 8.5q-64 0 -104.5 -26.5t-63 -67.5
t-31.5 -84.5t-11 -77.5q25 32 74 60t131 28q68 0 119.5 -29t80.5 -81.5t29 -124.5q0 -63 -30 -114.5t-85 -82t-132 -30.5zM334 75q48 0 82.5 20t53.5 53t19 71q0 66 -37 108t-112 42q-59 0 -97 -19.5t-59.5 -45t-32.5 -45.5q7 -48 26 -90t57 -68t100 -26z" />
    <glyph glyph-name="seven" unicode="7" horiz-adv-x="628" 
d="M230 -5q-19 0 -32 13t-13 32q0 12 6 24l275 547h-363q-18 0 -30.5 12.5t-12.5 30.5t12.5 31t30.5 13h408q24 0 40 -15t16 -38q0 -22 -10 -44l-284 -581q-13 -25 -43 -25z" />
    <glyph glyph-name="eight" unicode="8" horiz-adv-x="628" 
d="M314 -10q-75 0 -126 17.5t-82 46.5t-45 63.5t-14 67.5q0 77 41 122t108 67q-46 16 -81 53.5t-35 98.5q0 29 12 61t39.5 59.5t72 44.5t110.5 17t110.5 -17t72 -44.5t39.5 -59.5t12 -61q0 -61 -34.5 -98.5t-81.5 -53.5q67 -22 108 -67t41 -122q0 -33 -14 -67.5t-45 -63.5
t-82 -46.5t-126 -17.5zM314 412q55 0 86 17.5t44 42.5t13 48q0 44 -35 76t-108 32t-108 -32t-35 -76q0 -23 13 -48t44.5 -42.5t85.5 -17.5zM314 70q67 0 105.5 22t54.5 51.5t16 51.5q0 45 -25 75t-65 45t-86 15t-86 -15t-65 -45t-25 -75q0 -22 16 -51.5t54.5 -51.5
t105.5 -22z" />
    <glyph glyph-name="nine" unicode="9" horiz-adv-x="628" 
d="M279 -10q-62 0 -104.5 13.5t-72.5 29.5q-21 11 -21 36q0 16 11 28.5t30 12.5q10 0 17 -3q26 -12 59 -20.5t74 -8.5q65 0 105 26.5t62.5 67.5t31.5 84.5t11 77.5q-25 -31 -73.5 -59.5t-131.5 -28.5q-68 0 -119.5 29t-80.5 82t-29 124q0 63 30 114.5t85.5 82t131.5 30.5
q74 0 123.5 -23.5t79.5 -63t45.5 -86.5t20.5 -95.5t5 -89.5q0 -58 -14.5 -121t-48 -117.5t-89 -88t-138.5 -33.5zM288 329q59 0 97 19.5t60 45.5t32 45q-7 49 -26 90.5t-56.5 67.5t-100.5 26q-48 0 -82.5 -20t-53.5 -52.5t-19 -71.5q0 -66 37 -108t112 -42z" />
    <glyph glyph-name="colon" unicode=":" horiz-adv-x="260" 
d="M125 395q-23 0 -39.5 16.5t-16.5 39.5v6q0 23 16.5 39.5t39.5 16.5h10q23 0 39.5 -16.5t16.5 -39.5v-6q0 -23 -16.5 -39.5t-39.5 -16.5h-10zM125 -3q-23 0 -39.5 16.5t-16.5 39.5v6q0 23 16.5 39.5t39.5 16.5h10q23 0 39.5 -16.5t16.5 -39.5v-6q0 -23 -16.5 -39.5
t-39.5 -16.5h-10z" />
    <glyph glyph-name="semicolon" unicode=";" horiz-adv-x="260" 
d="M125 395q-23 0 -39.5 16.5t-16.5 39.5v6q0 23 16.5 39.5t39.5 16.5h10q23 0 39.5 -16.5t16.5 -39.5v-6q0 -23 -16.5 -39.5t-39.5 -16.5h-10zM92 -151q-13 0 -21 9t-8 21q0 16 15 25q22 13 36.5 32.5t14.5 60.5h-4q-23 0 -39.5 16.5t-16.5 39.5v6q0 23 16.5 39.5
t39.5 16.5h10q23 0 39.5 -16.5t16.5 -39.5v-59q0 -60 -26.5 -94t-55.5 -52q-2 -1 -7 -3t-10 -2z" />
    <glyph glyph-name="less" unicode="&#x3c;" horiz-adv-x="580" 
d="M486 58q-8 0 -16 3l-399 179q-36 16 -36 52v8q0 36 36 52l399 179q8 3 16 3q17 0 28.5 -11.5t11.5 -28.5q0 -26 -27 -38l-360 -160l360 -160q27 -12 27 -38q0 -17 -11.5 -28.5t-28.5 -11.5z" />
    <glyph glyph-name="equal" unicode="=" horiz-adv-x="712" 
d="M112 404q-16 0 -27.5 11.5t-11.5 27.5q0 17 11.5 28t27.5 11h488q17 0 28 -11t11 -28q0 -16 -11 -27.5t-28 -11.5h-488zM112 180q-16 0 -27.5 11.5t-11.5 27.5q0 17 11.5 28t27.5 11h488q17 0 28 -11t11 -28q0 -16 -11 -27.5t-28 -11.5h-488z" />
    <glyph glyph-name="greater" unicode="&#x3e;" horiz-adv-x="580" 
d="M94 58q-16 0 -28 11.5t-12 28.5q0 26 27 38l360 160l-360 160q-27 12 -27 38q0 17 12 28.5t28 11.5q9 0 16 -3l399 -179q36 -16 36 -52v-8q0 -36 -36 -52l-399 -179q-7 -3 -16 -3z" />
    <glyph glyph-name="question" unicode="?" horiz-adv-x="497" 
d="M221 186q-19 0 -31.5 11.5t-12.5 27.5q0 51 18.5 86.5t46.5 61t55.5 46.5t46 43.5t18.5 51.5q0 51 -33.5 80t-109.5 29q-34 0 -68 -8t-60 -25q-12 -8 -25 -8q-16 0 -28 12t-12 28q0 14 7.5 23t17.5 15q42 26 84.5 37t91.5 11q102 0 163.5 -51t61.5 -138q0 -48 -19 -80
t-46.5 -55.5t-55.5 -45.5t-47 -48.5t-19 -64.5q0 -16 -13.5 -27.5t-30.5 -11.5zM219 -4q-24 0 -41.5 17.5t-17.5 42.5q0 24 17.5 41.5t41.5 17.5q25 0 42.5 -17.5t17.5 -41.5q0 -25 -17.5 -42.5t-42.5 -17.5z" />
    <glyph glyph-name="at" unicode="@" horiz-adv-x="898" 
d="M400 -83q-80 0 -145 28t-111 76.5t-70.5 110.5t-24.5 130q0 86 33.5 163t92 136t135 93t163.5 34q77 0 146 -25.5t122 -71t83 -109t30 -140.5q0 -44 -10 -87.5t-32 -79.5t-57.5 -58t-86.5 -22q-54 0 -80.5 24t-31.5 50q-32 -39 -75 -57t-90 -18q-82 0 -126 50.5
t-44 125.5q0 78 34.5 132.5t89 82.5t113.5 28q46 0 77.5 -16.5t50.5 -34.5l3 17q2 14 13 22.5t24 8.5q15 0 25.5 -10.5t10.5 -26.5v-3.5t-1 -7.5l-33 -190q-2 -12 -4.5 -29.5t-2.5 -35.5q0 -25 11.5 -45t38.5 -20q63 0 96 55t33 145q0 72 -28.5 127t-75.5 92t-105 55.5
t-118 18.5q-76 0 -143 -29.5t-118.5 -81t-81 -119t-29.5 -143.5q0 -54 19.5 -106t57.5 -94.5t93.5 -67.5t128.5 -25q68 0 115.5 13.5t93.5 32.5q6 2 11 2q11 0 18 -6.5t7 -17.5q0 -16 -14 -23q-42 -21 -99.5 -37t-131.5 -16zM413 163q32 0 62 11.5t52.5 42t31.5 86.5l16 93
q-17 18 -44.5 32t-68.5 14q-42 0 -79.5 -18.5t-61 -54.5t-23.5 -89q0 -61 34 -89t81 -28z" />
    <glyph glyph-name="A" unicode="A" horiz-adv-x="746" 
d="M95 -5q-21 0 -33 13t-12 32q0 8 5 20l255 602q7 16 21.5 28.5t36.5 12.5h10q23 0 37 -12.5t21 -28.5l255 -602q5 -12 5 -20q0 -19 -12 -32t-33 -13q-31 0 -43 28l-65 156h-340l-65 -156q-12 -28 -43 -28zM238 262h270l-135 325z" />
    <glyph glyph-name="B" unicode="B" horiz-adv-x="693" 
d="M142 0q-19 0 -32 13t-13 32v607q0 19 13 32.5t32 13.5h236q110 0 167 -50t57 -131q0 -62 -30 -99.5t-68 -54.5q36 -11 67.5 -33t50.5 -55t19 -79q0 -58 -25.5 -102.5t-82 -69t-149.5 -24.5h-242zM188 396h166q63 0 98 15t49 41t14 58q0 47 -38 75t-106 28h-183v-217z
M188 85h187q69 0 107.5 14.5t54.5 40.5t16 60q0 59 -45.5 86.5t-131.5 27.5h-188v-229z" />
    <glyph glyph-name="C" unicode="C" horiz-adv-x="695" 
d="M405 -10q-99 0 -178.5 43.5t-125.5 124t-46 191.5q0 112 46 192t125.5 123.5t178.5 43.5q74 0 128 -18t100 -44q10 -5 15.5 -13.5t6.5 -22.5q1 -16 -10 -28t-30 -12q-10 0 -18 4q-40 21 -82 34t-101 13q-88 0 -148 -36t-90 -97.5t-30 -138.5t30 -138.5t90 -97.5t148 -36
q59 0 101 13t82 34q8 4 18 4q19 0 30 -12t10 -28q-1 -14 -6.5 -22.5t-15.5 -13.5q-46 -26 -100 -44t-128 -18z" />
    <glyph glyph-name="D" unicode="D" horiz-adv-x="751" 
d="M142 0q-19 0 -32 13t-13 32v607q0 19 13 32.5t32 13.5h201q90 0 156 -30.5t110 -81t65.5 -112.5t21.5 -125t-21.5 -125t-65.5 -112.5t-110 -81t-156 -30.5h-201zM188 85h144q84 0 145.5 33.5t95 93t33.5 137.5t-33.5 137.5t-95 93t-145.5 33.5h-144v-528z" />
    <glyph glyph-name="E" unicode="E" horiz-adv-x="638" 
d="M142 0q-19 0 -32 13t-13 32v607q0 19 13 32.5t32 13.5h401q18 0 30.5 -12.5t12.5 -30.5t-12.5 -30t-30.5 -12h-355v-221h319q18 0 30.5 -12.5t12.5 -30.5t-12.5 -30t-30.5 -12h-319v-222h355q18 0 30.5 -12.5t12.5 -30.5t-12.5 -30t-30.5 -12h-401z" />
    <glyph glyph-name="F" unicode="F" horiz-adv-x="608" 
d="M142 -5q-19 0 -32 13t-13 32v612q0 19 13 32.5t32 13.5h389q18 0 30.5 -12.5t12.5 -30.5t-12.5 -30t-30.5 -12h-343v-221h308q18 0 30.5 -12.5t12.5 -30.5t-12.5 -30t-30.5 -12h-308v-267q0 -19 -13.5 -32t-32.5 -13z" />
    <glyph glyph-name="G" unicode="G" horiz-adv-x="757" 
d="M406 -10q-105 0 -184 46t-123 126.5t-44 185.5q0 81 27 147.5t74.5 114t110.5 73t136 25.5q85 0 143.5 -21t105.5 -51q7 -4 13.5 -13t6.5 -23q0 -16 -11 -28.5t-31 -12.5q-11 0 -21 5q-44 26 -91 41t-105 15q-75 0 -135.5 -31.5t-96 -92t-35.5 -148.5q0 -77 32 -138.5
t93 -97.5t147 -36q53 0 97 12.5t78 31.5v181h-165q-17 0 -29 12t-12 29t12 29t29 12h197q20 0 34 -14t14 -34v-227q0 -21 -10.5 -37.5t-27.5 -24.5q-49 -25 -106.5 -40.5t-122.5 -15.5z" />
    <glyph glyph-name="H" unicode="H" horiz-adv-x="755" 
d="M142 -5q-19 0 -32 13t-13 32v617q0 19 13 32.5t32 13.5t32.5 -13.5t13.5 -32.5v-266h379v266q0 19 13 32.5t32 13.5t32.5 -13.5t13.5 -32.5v-617q0 -19 -13.5 -32t-32.5 -13t-32 13t-13 32v266h-379v-266q0 -19 -13.5 -32t-32.5 -13z" />
    <glyph glyph-name="I" unicode="I" horiz-adv-x="285" 
d="M142 -5q-19 0 -32 13t-13 32v617q0 19 13 32.5t32 13.5t32.5 -13.5t13.5 -32.5v-617q0 -19 -13.5 -32t-32.5 -13z" />
    <glyph glyph-name="J" unicode="J" horiz-adv-x="466" 
d="M168 -10q-38 0 -71.5 9t-61.5 25q-9 5 -15.5 14t-6.5 23q0 16 10.5 28.5t27.5 12.5q10 0 18 -4q20 -10 43.5 -16t49.5 -6q30 0 57.5 11t45.5 42.5t18 94.5v433q0 19 13 32.5t32 13.5t32.5 -13.5t13.5 -32.5v-427q0 -72 -17.5 -118.5t-47 -73t-66.5 -37.5t-75 -11z" />
    <glyph glyph-name="K" unicode="K" horiz-adv-x="670" 
d="M142 -5q-19 0 -32 13t-13 32v617q0 19 13 32.5t32 13.5t32.5 -13.5t13.5 -32.5v-318l342 348q5 6 14 11t20 5q18 0 31 -12.5t11 -30.5q-2 -19 -11 -28l-231 -230l265 -334q11 -14 11 -29q1 -18 -12 -31t-32 -13q-23 0 -36 18l-258 329l-114 -115v-187q0 -19 -13.5 -32
t-32.5 -13z" />
    <glyph glyph-name="L" unicode="L" horiz-adv-x="576" 
d="M160 0q-26 0 -44.5 18.5t-18.5 44.5v594q0 19 13 32.5t32 13.5t32.5 -13.5t13.5 -32.5v-566h327q19 0 32.5 -13.5t13.5 -32.5t-13.5 -32t-32.5 -13h-355z" />
    <glyph glyph-name="M" unicode="M" horiz-adv-x="966" 
d="M142 -5q-19 0 -32 13t-13 32v597q0 27 19 46.5t46 19.5h33q20 0 37 -12t24 -30l227 -566l227 566q8 18 24.5 30t36.5 12h33q27 0 46 -19.5t19 -46.5v-597q0 -19 -13 -32t-32 -13t-32.5 13t-13.5 32v568l-231 -571q-8 -19 -25 -30.5t-39 -11.5t-39 11.5t-25 30.5l-231 571
v-568q0 -19 -13.5 -32t-32.5 -13z" />
    <glyph glyph-name="N" unicode="N" horiz-adv-x="803" 
d="M142 -5q-19 0 -32 13t-13 32v597q0 27 19 46.5t46 19.5h13q17 0 31 -8t24 -22l385 -556v540q0 19 13 32.5t32 13.5t32.5 -13.5t13.5 -32.5v-597q0 -27 -19.5 -46t-46.5 -19h-12q-16 0 -30 7.5t-23 19.5l-387 559v-541q0 -19 -13.5 -32t-32.5 -13z" />
    <glyph glyph-name="O" unicode="O" horiz-adv-x="812" 
d="M406 -10q-107 0 -185 46t-121 127t-45 186q2 105 45 186t121 127t185 46t185 -46t121 -127t45 -186q-2 -105 -45 -186t-121 -127t-185 -46zM406 75q83 0 141 36.5t88.5 98.5t30.5 139t-30.5 139t-88.5 98.5t-141 36.5t-141 -36.5t-88.5 -98.5t-30.5 -139t30.5 -139
t88.5 -98.5t141 -36.5z" />
    <glyph glyph-name="P" unicode="P" horiz-adv-x="672" 
d="M142 -5q-19 0 -32 13t-13 32v612q0 19 13 32.5t32 13.5h228q76 0 127.5 -19.5t82 -52t44 -71.5t13.5 -79t-13.5 -79t-44 -71.5t-82 -52t-127.5 -19.5h-182v-214q0 -19 -13.5 -32t-32.5 -13zM188 340h173q75 0 115 20.5t55 52t15 63.5q0 33 -15 64t-55 51.5t-115 20.5
h-173v-272z" />
    <glyph glyph-name="Q" unicode="Q" horiz-adv-x="812" 
d="M607 -152q-19 0 -32 16l-109 130q-14 -2 -29 -3t-31 -1q-107 0 -185 46t-121 127t-45 186q2 105 45 186t121 127t185 46t185 -46t121 -127t45 -186q-2 -117 -56.5 -204.5t-150.5 -127.5l88 -97q12 -12 12 -29q1 -17 -12 -30t-31 -13zM406 75q83 0 141 36.5t88.5 98.5
t30.5 139t-30.5 139t-88.5 98.5t-141 36.5t-141 -36.5t-88.5 -98.5t-30.5 -139t30.5 -139t88.5 -98.5t141 -36.5z" />
    <glyph glyph-name="R" unicode="R" horiz-adv-x="712" 
d="M142 -5q-19 0 -32 13t-13 32v612q0 19 13 32.5t32 13.5h233q95 0 155 -27t88.5 -72.5t28.5 -103.5t-32.5 -108t-98.5 -73q42 -11 67 -39.5t37.5 -64.5t16.5 -69.5t4 -54.5v-46q0 -19 -13 -32t-32 -13q-21 0 -33.5 12.5t-12.5 32.5v30q0 25 -3.5 59t-17.5 67t-45.5 54.5
t-88.5 21.5h-207v-232q0 -19 -13.5 -32t-32.5 -13zM188 358h181q84 0 135.5 33t51.5 97q0 37 -17 65t-59 43.5t-116 15.5h-176v-254z" />
    <glyph glyph-name="S" unicode="S" horiz-adv-x="616" 
d="M317 -10q-75 0 -134.5 14.5t-103.5 33.5q-11 5 -19.5 16.5t-8.5 24.5q0 17 11 29.5t30 12.5q10 0 19 -4q34 -15 83.5 -28t113.5 -13q50 0 89.5 10.5t62.5 36t23 68.5q0 32 -23 51.5t-61 32.5t-83.5 24t-90.5 24.5t-83 35.5t-61 56.5t-23 87.5q0 56 29.5 102.5t87.5 74.5
t142 28q59 0 109 -9t90 -24q11 -4 19.5 -13t8.5 -27q0 -15 -10.5 -28.5t-29.5 -13.5q-4 0 -8 1.5t-8 2.5q-34 12 -74.5 19.5t-86.5 7.5q-76 0 -127 -29t-51 -85q0 -37 23 -59t61 -35t83 -23.5t90 -23.5t83 -34.5t61 -57t23 -92.5q0 -56 -31.5 -100.5t-89 -69.5t-135.5 -25z
" />
    <glyph glyph-name="T" unicode="T" horiz-adv-x="609" 
d="M304 -5q-19 0 -32 13t-13 32v573h-204q-18 0 -30 12t-12 30t12 30.5t30 12.5h498q18 0 30.5 -12.5t12.5 -30.5t-12.5 -30t-30.5 -12h-203v-573q0 -19 -13.5 -32t-32.5 -13z" />
    <glyph glyph-name="U" unicode="U" horiz-adv-x="758" 
d="M379 -10q-50 0 -101 16t-93 49.5t-67.5 85t-25.5 121.5v395q0 19 13 32.5t32 13.5t32.5 -13.5t13.5 -32.5v-398q0 -62 28.5 -103.5t73.5 -62t94 -20.5t94 20.5t73.5 62t28.5 103.5v398q0 19 13 32.5t32 13.5t32.5 -13.5t13.5 -32.5v-395q0 -70 -25.5 -121.5t-67.5 -85
t-93 -49.5t-101 -16z" />
    <glyph glyph-name="V" unicode="V" horiz-adv-x="694" 
d="M336 -5q-41 0 -62 46l-247 599q-3 8 -3 17q0 20 12 33t33 13q30 0 43 -31l235 -586l235 586q13 31 43 31q21 0 33 -13t12 -33q0 -9 -3 -17l-247 -599q-21 -46 -62 -46h-22z" />
    <glyph glyph-name="W" unicode="W" horiz-adv-x="1011" 
d="M286 -5q-19 0 -35 11t-24 34l-196 602q-3 11 -3 17q-1 19 12 31.5t32 12.5q17 0 29 -10t16 -26l168 -552l169 550q5 17 19.5 27.5t32.5 10.5t32.5 -10.5t19.5 -27.5l169 -550l168 552q5 16 17 26t28 10q20 0 33 -12.5t11 -31.5q0 -6 -3 -17l-196 -602q-8 -23 -24 -34
t-35 -11q-20 0 -36.5 13t-22.5 32l-161 510l-161 -510q-6 -19 -22.5 -32t-36.5 -13z" />
    <glyph glyph-name="X" unicode="X" horiz-adv-x="671" 
d="M86 -5q-17 0 -29.5 12.5t-12.5 29.5q0 16 9 28l231 284l-229 282q-9 12 -9 28q0 19 12.5 31.5t31.5 12.5q24 0 37 -18l211 -268l211 270q11 16 33 16q18 0 31 -12.5t13 -30.5q0 -14 -8 -25l-231 -285l231 -284q9 -10 9 -26q0 -18 -12 -31.5t-33 -13.5q-22 0 -36 19
l-214 269l-211 -270q-15 -18 -35 -18z" />
    <glyph glyph-name="Y" unicode="Y" horiz-adv-x="639" 
d="M320 -5q-19 0 -32.5 13t-13.5 32v255l-239 335q-8 13 -8 27q0 19 12.5 32.5t31.5 13.5q25 0 40 -23l209 -304l209 304q15 23 40 23q20 0 32.5 -13.5t11.5 -32.5q0 -14 -8 -27l-240 -335v-255q0 -19 -13 -32t-32 -13z" />
    <glyph glyph-name="Z" unicode="Z" horiz-adv-x="638" 
d="M105 0q-24 0 -41 17t-17 41q0 22 12 37l418 516h-385q-18 0 -30.5 12.5t-12.5 30.5t12.5 31t30.5 13h434q29 0 45 -18.5t16 -43.5q0 -22 -16 -40l-413 -511h392q18 0 30.5 -12.5t12.5 -30.5t-12.5 -30t-30.5 -12h-445z" />
    <glyph glyph-name="bracketleft" unicode="[" horiz-adv-x="322" 
d="M131 -132q-18 0 -31 13t-13 31v776q0 18 13 31t31 13h127q15 0 25.5 -10.5t10.5 -25.5t-10.5 -25.5t-25.5 -10.5h-92v-721h92q15 0 25.5 -10.5t10.5 -24.5t-10.5 -25t-25.5 -11h-127z" />
    <glyph glyph-name="backslash" unicode="\" horiz-adv-x="443" 
d="M354 -95q-15 0 -25 8t-14 20l-265 775q-1 2 -2 6.5t-1 8.5q0 17 11.5 29t29.5 12q15 0 25 -8t14 -20l265 -775q1 -2 2 -6.5t1 -8.5q0 -17 -11.5 -29t-29.5 -12z" />
    <glyph glyph-name="bracketright" unicode="]" horiz-adv-x="322" 
d="M64 -132q-15 0 -25.5 11t-10.5 25t10.5 24.5t25.5 10.5h92v721h-92q-15 0 -25.5 10.5t-10.5 25.5t10.5 25.5t25.5 10.5h127q18 0 31 -13t13 -31v-776q0 -18 -13 -31t-31 -13h-127z" />
    <glyph glyph-name="asciicircum" unicode="^" horiz-adv-x="524" 
d="M118 415q-16 0 -26 11t-10 25q0 5 2 9.5t4 8.5l105 199q8 14 19 24t30 10h38q20 0 31 -10t18 -24l105 -199q2 -4 4 -8.5t2 -9.5q0 -14 -10 -25t-26 -11q-17 0 -26 11q-1 1 -3.5 5.5t-13 22t-34.5 56t-66 106.5q-42 -67 -65.5 -105.5t-34 -56l-13.5 -22.5t-4 -6
q-9 -11 -26 -11z" />
    <glyph glyph-name="underscore" unicode="_" horiz-adv-x="663" 
d="M85 -147q-13 0 -23 10t-10 23q0 14 10 23.5t23 9.5h493q14 0 23.5 -9.5t9.5 -23.5q0 -13 -9.5 -23t-23.5 -10h-493z" />
    <glyph glyph-name="grave" unicode="`" horiz-adv-x="246" 
d="M200 567q-13 0 -22 11l-69 82q-10 11 -10 25q0 17 10.5 27t26.5 10q13 0 21 -5.5t12 -13.5l51 -90q2 -2 4.5 -7.5t2.5 -11.5q0 -12 -7.5 -19.5t-19.5 -7.5z" />
    <glyph glyph-name="a" unicode="a" horiz-adv-x="562" 
d="M209 -10q-43 0 -80.5 18t-60 51.5t-22.5 80.5q0 71 56.5 116.5t173.5 45.5h121v8q0 67 -33 95.5t-101 28.5q-42 0 -73.5 -7.5t-59.5 -16.5q-8 -2 -13 -2q-15 0 -26 11t-11 27q0 27 26 38q35 15 77.5 25.5t95.5 10.5q73 0 119 -29t68 -74t22 -94v-283q0 -19 -13.5 -32
t-32.5 -13t-32 13t-13 32v26q-27 -28 -72 -52t-116 -24zM243 70q47 0 88 23t66 52v84h-109q-70 0 -110.5 -18t-40.5 -61q0 -32 22.5 -56t83.5 -24z" />
    <glyph glyph-name="b" unicode="b" horiz-adv-x="631" 
d="M341 -10q-52 0 -94 20t-77 56v-26q0 -19 -13 -32t-33 -13q-19 0 -32 13t-13 32v649q0 20 13 33t32 13q20 0 33 -13t13 -33v-245q35 36 77 56t94 20q61 0 116 -31t90.5 -90t35.5 -144t-35.5 -144t-90.5 -90t-116 -31zM328 75q71 0 117.5 46t46.5 134q0 89 -46.5 134.5
t-117.5 45.5q-49 0 -89 -21.5t-69 -53.5v-210q29 -32 69 -53.5t89 -21.5z" />
    <glyph glyph-name="c" unicode="c" horiz-adv-x="533" 
d="M315 -10q-71 0 -132 31.5t-98 91t-37 142.5q0 84 37 143t98 90.5t132 31.5q59 0 98.5 -15.5t64.5 -32.5q20 -13 20 -35q0 -14 -11 -27t-27 -13q-11 0 -22 6q-26 14 -51 23t-64 9q-87 0 -135.5 -50t-48.5 -130t48.5 -130t135.5 -50q39 0 64 9.5t51 22.5q11 6 22 6
q16 0 27 -13t11 -27q0 -22 -20 -35q-25 -16 -64.5 -32t-98.5 -16z" />
    <glyph glyph-name="d" unicode="d" horiz-adv-x="631" 
d="M290 -10q-60 0 -115.5 31t-91 90t-35.5 144t35.5 144t91 90t115.5 31q53 0 95 -20t76 -56v245q0 20 13.5 33t32.5 13t32 -13t13 -33v-649q0 -19 -13 -32t-32 -13t-32.5 13t-13.5 32v26q-34 -36 -76 -56t-95 -20zM303 75q49 0 89 21.5t69 53.5v210q-29 32 -69 53.5
t-89 21.5q-71 0 -117.5 -45.5t-46.5 -134.5q0 -88 46.5 -134t117.5 -46z" />
    <glyph glyph-name="e" unicode="e" horiz-adv-x="566" 
d="M307 -10q-122 0 -190.5 69.5t-68.5 195.5q0 68 25 128.5t78 98.5t136 38q77 0 130 -35.5t80.5 -92.5t27.5 -124q0 -19 -12.5 -32t-33.5 -13h-339q8 -67 51 -107.5t124 -40.5q45 0 76 8.5t59 22.5q8 4 18 4q16 0 28 -11t12 -28q0 -12 -7.5 -21.5t-18.5 -15.5
q-33 -19 -71.5 -31.5t-103.5 -12.5zM140 297h295q-3 52 -26.5 84t-56.5 47t-65 15t-65 -15t-56 -47t-26 -84z" />
    <glyph glyph-name="f" unicode="f" horiz-adv-x="382" 
d="M162 -5q-19 0 -32 13t-13 32v392h-59q-16 0 -27.5 11.5t-11.5 27.5q0 17 11.5 28t27.5 11h59v58q0 63 22.5 101t57.5 54.5t70 16.5q25 0 47 -5.5t40 -14.5q9 -4 16 -13.5t7 -21.5q0 -14 -10.5 -26t-26.5 -12q-12 0 -24 3t-26 3q-37 0 -59.5 -17.5t-22.5 -70.5v-55h125
q17 0 28 -11t11 -28q0 -16 -11 -27.5t-28 -11.5h-125v-392q0 -19 -13 -32t-33 -13z" />
    <glyph glyph-name="g" unicode="g" horiz-adv-x="631" 
d="M317 -240q-61 0 -120 16t-94 36q-7 5 -12.5 13t-5.5 22q0 15 11.5 28t28.5 13q5 0 9.5 -1t8.5 -3q32 -16 73 -27t92 -11q153 0 153 163v67q-31 -33 -73 -54.5t-98 -21.5q-42 0 -84.5 16t-78 48t-57.5 81t-22 115t22 115t57.5 81t78 48t84.5 16q56 0 98 -21.5t73 -54.5v25
q0 19 13 32.5t32 13.5t32.5 -13.5t13.5 -32.5v-447q0 -126 -61 -194t-174 -68zM309 83q52 0 88 23t64 51v206q-28 29 -64 51.5t-88 22.5q-47 0 -86 -19t-61.5 -58.5t-22.5 -99.5t22.5 -99.5t61.5 -58.5t86 -19z" />
    <glyph glyph-name="h" unicode="h" horiz-adv-x="609" 
d="M124 -5q-19 0 -32 13t-13 32v649q0 20 13 33t32 13t32.5 -13t13.5 -33v-261q32 35 75.5 63.5t110.5 28.5q57 0 97 -26.5t61 -71t21 -98.5v-284q0 -19 -13.5 -32t-32.5 -13t-32 13t-13 32v274q0 57 -25.5 89.5t-84.5 32.5q-54 0 -94 -29t-70 -67v-300q0 -19 -13.5 -32
t-32.5 -13z" />
    <glyph glyph-name="i" unicode="i" horiz-adv-x="249" 
d="M122 614q-21 0 -36 15t-15 36v4q0 21 15 36t36 15h6q21 0 36 -15t15 -36v-4q0 -21 -15 -36t-36 -15h-6zM124 -5q-19 0 -32 13t-13 32v429q0 20 13 33t32 13q20 0 33 -13t13 -33v-429q0 -19 -13 -32t-33 -13z" />
    <glyph glyph-name="j" unicode="j" horiz-adv-x="254" 
d="M127 614q-21 0 -36 15t-15 36v4q0 21 15 36t36 15h6q21 0 36 -15t15 -36v-4q0 -21 -15 -36t-36 -15h-6zM44 -240q-36 0 -63 9q-26 8 -26 36q0 15 11 26.5t27 11.5q7 0 14 -1.5t16 -1.5q26 0 43.5 9.5t17.5 49.5v569q0 20 13 33t32 13q20 0 33 -13t13 -33v-571
q0 -58 -29.5 -97.5t-101.5 -39.5z" />
    <glyph glyph-name="k" unicode="k" horiz-adv-x="545" 
d="M124 -5q-19 0 -32 13t-13 32v649q0 19 13 32.5t32 13.5t32.5 -13.5t13.5 -32.5v-409l238 220q6 5 13.5 9t16.5 4q26 0 35 -14.5t9 -29.5q0 -6 -3 -14.5t-14 -19.5l-144 -129l181 -240q10 -13 10 -27q0 -20 -13 -32t-33 -12q-21 0 -37 19l-172 234l-87 -79v-129
q0 -19 -13.5 -32t-32.5 -13z" />
    <glyph glyph-name="l" unicode="l" horiz-adv-x="249" 
d="M124 -5q-19 0 -32 13t-13 32v649q0 20 13 33t32 13q20 0 33 -13t13 -33v-649q0 -19 -13 -32t-33 -13z" />
    <glyph glyph-name="m" unicode="m" horiz-adv-x="918" 
d="M124 -5q-19 0 -32 13t-13 32v429q0 19 13 32.5t32 13.5t32.5 -13.5t13.5 -32.5v-41q14 20 35.5 41t54.5 36t80 15q60 0 98.5 -32t54.5 -71q12 19 34 43t58.5 42t91.5 18q59 0 96 -29.5t54 -73.5t17 -89v-288q0 -19 -13.5 -32t-32.5 -13t-32 13t-13 32v270
q0 63 -22.5 94.5t-79.5 31.5q-38 0 -65 -14.5t-46 -36.5t-33 -45v-300q0 -19 -13.5 -32t-32.5 -13t-32 13t-13 32v270q0 63 -22.5 94.5t-79.5 31.5q-38 0 -65 -14.5t-46 -36.5t-33 -45v-300q0 -19 -13.5 -32t-32.5 -13z" />
    <glyph glyph-name="n" unicode="n" horiz-adv-x="609" 
d="M124 -5q-19 0 -32 13t-13 32v429q0 20 13 33t32 13t32.5 -13t13.5 -33v-41q32 35 75.5 63.5t110.5 28.5q57 0 97 -26.5t61 -71t21 -98.5v-284q0 -19 -13.5 -32t-32.5 -13t-32 13t-13 32v274q0 57 -25.5 89.5t-84.5 32.5q-54 0 -94 -29t-70 -67v-300q0 -19 -13.5 -32
t-32.5 -13z" />
    <glyph glyph-name="o" unicode="o" horiz-adv-x="608" 
d="M304 -10q-77 0 -135 33.5t-89.5 93t-31.5 138.5t31.5 138.5t89.5 93t135 33.5t134.5 -33.5t89.5 -93t32 -138.5t-32 -138.5t-89.5 -93t-134.5 -33.5zM304 73q38 0 76 18t63.5 58.5t25.5 106.5t-25.5 106t-63.5 57.5t-76 17.5t-76.5 -17.5t-63.5 -57.5t-25 -106t25 -106.5
t63.5 -58.5t76.5 -18z" />
    <glyph glyph-name="p" unicode="p" horiz-adv-x="631" 
d="M124 -235q-19 0 -32 13.5t-13 32.5v659q0 19 13 32t32 13q20 0 33 -13t13 -32v-26q35 36 77 56t94 20q61 0 116 -31t90.5 -90t35.5 -144t-35.5 -144t-90.5 -90t-116 -31q-52 0 -94 20t-77 56v-255q0 -19 -13 -32.5t-33 -13.5zM328 75q71 0 117.5 46t46.5 134
q0 89 -46.5 134.5t-117.5 45.5q-49 0 -89 -21.5t-69 -53.5v-210q29 -32 69 -53.5t89 -21.5z" />
    <glyph glyph-name="q" unicode="q" horiz-adv-x="631" 
d="M507 -235q-19 0 -32.5 13.5t-13.5 32.5v255q-34 -36 -76 -56t-95 -20q-60 0 -115.5 31t-91 90t-35.5 144t35.5 144t91 90t115.5 31q53 0 95 -20t76 -56v26q0 19 13.5 32t32.5 13t32 -13t13 -32v-659q0 -19 -13 -32.5t-32 -13.5zM303 75q49 0 89 21.5t69 53.5v210
q-29 32 -69 53.5t-89 21.5q-71 0 -117.5 -45.5t-46.5 -134.5q0 -88 46.5 -134t117.5 -46z" />
    <glyph glyph-name="r" unicode="r" horiz-adv-x="383" 
d="M124 -5q-19 0 -32 13t-13 32v429q0 19 13 32.5t32 13.5t32.5 -13.5t13.5 -32.5v-43q27 36 66 65t91 29h5q19 0 31.5 -13t12.5 -32t-13 -31t-33 -12h-5q-49 0 -89 -24.5t-66 -63.5v-304q0 -19 -13.5 -32t-32.5 -13z" />
    <glyph glyph-name="s" unicode="s" horiz-adv-x="480" 
d="M244 -10q-55 0 -99.5 12t-82.5 33q-17 12 -17 33q0 15 11 27.5t28 12.5q9 0 18 -4q27 -12 59.5 -21t76.5 -9q58 0 84.5 18.5t26.5 52.5q0 22 -21.5 34t-56 20.5t-72.5 18t-72.5 26t-56 45t-21.5 73.5q0 68 49 113t146 45q41 0 77.5 -7t67.5 -18q14 -4 21.5 -15.5
t7.5 -22.5q0 -16 -11.5 -28t-28.5 -12q-4 0 -7 0.5t-6 1.5q-24 8 -52.5 13t-61.5 5q-55 0 -85 -20t-30 -50q0 -26 21.5 -40t56 -22.5t73 -17.5t73 -25.5t56 -45.5t21.5 -78q0 -61 -48.5 -104.5t-144.5 -43.5z" />
    <glyph glyph-name="t" unicode="t" horiz-adv-x="382" 
d="M255 -10q-18 0 -42.5 3.5t-48 16t-39.5 39.5t-16 73v310h-71q-19 0 -19 19q0 10 9 17l136 133q2 2 6.5 5.5t10.5 3.5q8 0 13.5 -6t5.5 -14v-80h113q17 0 28 -11t11 -28q0 -16 -11 -27.5t-28 -11.5h-113v-302q0 -29 11 -42t26.5 -15.5t27.5 -2.5q24 0 35.5 4.5t24.5 4.5
q14 0 25 -10t11 -26q0 -23 -23 -35q-18 -8 -38.5 -13t-44.5 -5z" />
    <glyph glyph-name="u" unicode="u" horiz-adv-x="609" 
d="M253 -10q-57 0 -97 26.5t-61 71.5t-21 98v284q0 19 13.5 32t32.5 13t32 -13t13 -32v-274q0 -57 26 -89.5t84 -32.5q54 0 94 29.5t70 66.5v300q0 19 13.5 32t32.5 13t32 -13t13 -32v-429q0 -19 -13 -32.5t-32 -13.5t-32.5 13.5t-13.5 32.5v41q-31 -34 -75 -63t-111 -29z
" />
    <glyph glyph-name="v" unicode="v" horiz-adv-x="530" 
d="M260 -5q-19 0 -33.5 11t-21.5 26l-174 416q-5 12 -5 21q0 19 13 32.5t32 13.5q14 0 25.5 -7.5t15.5 -18.5l153 -388l153 388q5 11 16.5 18.5t24.5 7.5q19 0 32 -13.5t13 -32.5q0 -9 -5 -21l-174 -416q-7 -15 -21.5 -26t-33.5 -11h-10z" />
    <glyph glyph-name="w" unicode="w" horiz-adv-x="792" 
d="M231 -5q-20 0 -36 12.5t-22 29.5l-142 416q-3 9 -3 17q0 19 13 32t32 13q14 0 25.5 -7t15.5 -20l117 -385l116 376q5 16 18.5 26t30.5 10t31 -10t18 -26l116 -376l117 385q4 13 16 20t25 7q19 0 32 -13t13 -32q0 -8 -3 -17l-142 -416q-6 -17 -22 -29.5t-36 -12.5
t-36 12.5t-23 30.5l-106 331l-106 -331q-7 -18 -23 -30.5t-36 -12.5z" />
    <glyph glyph-name="x" unicode="x" horiz-adv-x="541" 
d="M94 -5q-19 0 -31 12.5t-12 33.5q0 15 10 28l155 183l-155 189q-11 14 -11 29q0 21 13 33t32 12q24 0 36 -17l140 -173l139 173q12 17 35 17q20 0 33 -12.5t13 -30.5q0 -15 -10 -28l-158 -186l156 -188q6 -7 8.5 -15t2.5 -14q0 -17 -11.5 -31.5t-34.5 -14.5q-22 0 -35 18
l-142 170l-134 -168q-15 -20 -39 -20z" />
    <glyph glyph-name="y" unicode="y" horiz-adv-x="537" 
d="M193 -235q-18 0 -30.5 13t-12.5 31q0 9 3 16l65 167l-188 458q-1 4 -2.5 9t-1.5 10q0 19 13 32.5t32 13.5q14 0 25.5 -8t16.5 -20l154 -382l157 380q6 14 16.5 22t25.5 8q19 0 32 -13.5t13 -32.5q0 -9 -3 -17l-273 -656q-6 -13 -16 -22t-26 -9z" />
    <glyph glyph-name="z" unicode="z" horiz-adv-x="498" 
d="M103 0q-26 0 -44.5 13.5t-18.5 39.5q0 23 16 41l288 331h-253q-18 0 -30 12t-12 30t12 30.5t30 12.5h303q26 0 42 -15.5t16 -41.5q0 -23 -14 -40l-280 -328h257q18 0 30.5 -12.5t12.5 -30.5t-12.5 -30t-30.5 -12h-312z" />
    <glyph glyph-name="braceleft" unicode="{" horiz-adv-x="344" 
d="M269 -145q-40 0 -71.5 9.5t-50 35.5t-18.5 75v211q0 17 -4.5 32.5t-23.5 28.5t-64 20q-17 3 -25.5 14t-8.5 26t8.5 26t25.5 14q45 8 64 20.5t23.5 28.5t4.5 32v211q0 49 18.5 75t50 35.5t71.5 9.5h12q14 0 24.5 -10.5t10.5 -24.5t-10.5 -24.5t-24.5 -10.5h-15
q-28 0 -40.5 -7t-15.5 -16.5t-3 -18.5v-222q0 -45 -23 -73.5t-67 -44.5q44 -16 67 -44.5t23 -73.5v-222q0 -8 3 -18t15.5 -17t40.5 -7h15q14 0 24.5 -10.5t10.5 -24.5t-10.5 -24.5t-24.5 -10.5h-12z" />
    <glyph glyph-name="bar" unicode="|" horiz-adv-x="253" 
d="M126 -196q-17 0 -28.5 11.5t-11.5 28.5v856q0 17 11.5 29t28.5 12t29 -12t12 -29v-856q0 -17 -12 -28.5t-29 -11.5z" />
    <glyph glyph-name="braceright" unicode="}" horiz-adv-x="344" 
d="M63 -145q-14 0 -24.5 10.5t-10.5 24.5t10.5 24.5t24.5 10.5h15q29 0 41 7t15 17t3 18v222q0 45 23.5 73.5t66.5 44.5q-43 16 -66.5 44.5t-23.5 73.5v222q0 9 -3 18.5t-15 16.5t-41 7h-15q-14 0 -24.5 10.5t-10.5 24.5t10.5 24.5t24.5 10.5h12q40 0 71.5 -9.5t50 -35.5
t18.5 -75v-211q0 -16 4.5 -32t24 -28.5t63.5 -20.5q17 -3 25.5 -14t8.5 -26t-8.5 -26t-25.5 -14q-44 -7 -63.5 -20t-24 -28.5t-4.5 -32.5v-211q0 -49 -18.5 -75t-50 -35.5t-71.5 -9.5h-12z" />
    <glyph glyph-name="asciitilde" unicode="~" horiz-adv-x="638" 
d="M440 206q-40 0 -73 11.5t-62 26.5t-56.5 26.5t-54.5 11.5q-30 0 -46.5 -15t-23.5 -39q-5 -19 -24 -19q-10 0 -18 8t-8 18q0 32 17.5 62t46.5 50t63 20q40 0 73.5 -11.5t62.5 -26.5t56.5 -26.5t54.5 -11.5q26 0 37 7.5t17.5 21t16.5 31.5q3 6 9 10.5t15 4.5q10 0 18.5 -7
t5.5 -24q-12 -65 -46.5 -97t-80.5 -32z" />
    <glyph glyph-name="uni00A0" unicode="&#xa0;" horiz-adv-x="260" 
 />
    <glyph glyph-name="exclamdown" unicode="&#xa1;" horiz-adv-x="259" 
d="M130 395q-24 0 -41.5 17.5t-17.5 41.5q0 25 17.5 42.5t41.5 17.5q25 0 42.5 -17.5t17.5 -42.5q0 -24 -17.5 -41.5t-42.5 -17.5zM130 -193q-22 0 -37 15t-15 37v99l18 330q1 13 9.5 21t24.5 8t24 -8t9 -21l18 -330v-99q0 -22 -14.5 -37t-36.5 -15z" />
    <glyph glyph-name="cent" unicode="&#xa2;" horiz-adv-x="551" 
d="M183 -123q-12 0 -20 8.5t-8 19.5q0 7 3 13l33 97q-64 29 -105.5 90.5t-41.5 149.5q0 84 37 143t98 90.5t132 31.5q14 0 27 -1t25 -3l29 85q7 19 27 19q13 0 20.5 -9t7.5 -20q0 -4 -2 -10l-27 -80q17 -6 31 -13.5t25 -15.5q20 -13 20 -35q0 -14 -11 -27t-27 -13
q-11 0 -22 6l-43 20l-118 -344q11 -2 22 -3t24 -1q39 0 64 9.5t51 22.5q11 6 22 6q16 0 27 -13t11 -27q0 -22 -20 -35q-25 -16 -64.5 -32t-98.5 -16q-17 0 -33.5 2t-32.5 6l-35 -103q-6 -18 -27 -18zM220 98l115 336q-4 1 -8 1h-8q-87 0 -135.5 -50t-48.5 -130
q0 -54 22 -94.5t63 -62.5z" />
    <glyph glyph-name="sterling" unicode="&#xa3;" horiz-adv-x="604" 
d="M75 292q-15 0 -25.5 10.5t-10.5 25.5t10.5 26t25.5 11h79q-11 32 -20 65.5t-9 71.5q0 65 31 111t85.5 70.5t126.5 24.5q43 0 78 -8t66 -21q13 -5 21.5 -15t8.5 -25q0 -17 -11.5 -29.5t-30.5 -12.5q-4 0 -10.5 1.5t-8.5 2.5q-25 8 -51 13.5t-58 5.5q-62 0 -96 -17
t-47 -43.5t-13 -53.5q0 -35 10 -70t21 -71h167q15 0 26 -11t11 -26q0 -16 -10 -26t-27 -10h-151q2 -16 2 -31q0 -46 -13 -82t-29 -61q6 0 12 0.5t13 0.5q39 0 70 -10t61 -20.5t66 -10.5q18 0 33 3t30 8q2 1 7 2.5t9 1.5q17 0 29 -11.5t12 -28.5q0 -23 -23 -36t-50 -20
t-56 -7q-31 0 -54.5 7t-44.5 15.5t-44.5 15.5t-55.5 7q-33 0 -60 -10t-48 -24q-11 -8 -23 -8q-15 0 -26 10.5t-11 24.5q0 19 14 31q22 21 43 51t35 67t14 78q0 18 -3 37h-97z" />
    <glyph glyph-name="currency" unicode="&#xa4;" horiz-adv-x="668" 
d="M103 81q-16 0 -26.5 11t-10.5 26t11 26l65 65q-21 30 -33 65.5t-12 74.5t12 74.5t33 65.5l-65 65q-11 11 -11 26t10.5 26t26.5 11q8 0 14 -3t12 -8l66 -65q29 21 64.5 33t74.5 12t74.5 -12t64.5 -33l66 65q6 5 12 8t14 3q17 0 27 -11t10 -26t-11 -26l-65 -65
q21 -30 33 -65.5t12 -74.5t-12 -74.5t-33 -65.5l65 -65q11 -11 11 -26t-10 -26t-27 -11q-8 0 -14 3t-12 8l-66 65q-29 -21 -64.5 -33t-74.5 -12t-74.5 12t-64.5 33l-66 -65q-6 -5 -12 -8t-14 -3zM334 193q43 0 78.5 21t56.5 56.5t21 78.5t-21 78.5t-56.5 56.5t-78.5 21
t-78.5 -21t-56.5 -56.5t-21 -78.5t21 -78.5t56.5 -56.5t78.5 -21z" />
    <glyph glyph-name="yen" unicode="&#xa5;" horiz-adv-x="658" 
d="M329 -6q-18 0 -31.5 13t-13.5 32v112h-141q-16 0 -26.5 10.5t-10.5 26.5t10.5 27t26.5 11h141v64h-141q-16 0 -26.5 10.5t-10.5 26.5t10.5 27t26.5 11h98l-168 274q-8 13 -8 26q0 21 14.5 34t33.5 13q17 0 26.5 -8t16.5 -20l173 -303l173 303q7 12 17 20t26 8
q20 0 34 -13t14 -34q0 -13 -8 -26l-168 -274h98q16 0 26.5 -11t10.5 -27t-10 -26.5t-27 -10.5h-141v-64h141q16 0 26.5 -11t10.5 -27t-10 -26.5t-27 -10.5h-141v-112q0 -19 -13.5 -32t-31.5 -13z" />
    <glyph glyph-name="brokenbar" unicode="&#xa6;" horiz-adv-x="253" 
d="M126 364q-17 0 -28.5 11.5t-11.5 28.5v296q0 17 11.5 29t28.5 12t29 -12t12 -29v-296q0 -17 -12 -28.5t-29 -11.5zM126 -196q-17 0 -28.5 11.5t-11.5 28.5v296q0 17 11.5 29t28.5 12t29 -12t12 -29v-296q0 -17 -12 -28.5t-29 -11.5z" />
    <glyph glyph-name="section" unicode="&#xa7;" horiz-adv-x="529" 
d="M252 -103q-55 0 -103.5 11t-85.5 34q-7 5 -11.5 14t-4.5 19q0 17 11.5 28.5t27.5 11.5q5 0 11 -2t10 -4q27 -13 61.5 -20.5t77.5 -7.5q113 0 113 70q0 25 -22 41.5t-56 29.5t-73 28t-73 35.5t-56 51t-22 76.5q0 56 30 84.5t68 41.5q-28 20 -46 49t-18 72q0 61 48.5 104.5
t144.5 43.5q84 0 150 -27q11 -4 19 -14.5t8 -24.5q0 -16 -12.5 -28t-28.5 -12q-7 0 -15 3q-24 9 -52.5 14t-62.5 5q-113 0 -113 -70q0 -24 22 -41t56 -30.5t73 -28t73 -35t56 -51t22 -76.5q0 -55 -30 -84.5t-69 -42.5q29 -19 47 -48t18 -72q0 -61 -48.5 -104.5t-144.5 -43.5
zM320 198q32 8 53.5 28t21.5 60q0 34 -27.5 53.5t-69 34.5t-83.5 33q-31 -7 -52.5 -27.5t-21.5 -60.5q0 -33 27.5 -53t68.5 -35t83 -33z" />
    <glyph glyph-name="dieresis" unicode="&#xa8;" horiz-adv-x="400" 
d="M284 575q-21 0 -36 15t-15 36t15 36t36 15t36 -15t15 -36t-15 -36t-36 -15zM116 575q-21 0 -36 15t-15 36t15 36t36 15t36 -15t15 -36t-15 -36t-36 -15z" />
    <glyph glyph-name="copyright" unicode="&#xa9;" horiz-adv-x="819" 
d="M410 -9q-74 0 -139 28t-114.5 77t-77.5 114t-28 139t28 139t77.5 114t114.5 77t139 28t139 -28t114.5 -77t77.5 -114t28 -139t-28 -139t-77.5 -114t-114.5 -77t-139 -28zM409 43q64 0 119.5 24t98 66t66.5 97.5t24 118.5t-24 118.5t-66.5 97.5t-98 66t-119.5 24
q-63 0 -118.5 -24t-97.5 -66t-66 -97.5t-24 -118.5t24 -118.5t66 -97.5t97.5 -66t118.5 -24zM416 146q-57 0 -100.5 25t-68 71t-24.5 107q0 62 24.5 107.5t68 70.5t100.5 25q59 0 102 -28t67 -77q3 -6 3 -13q0 -13 -9 -22.5t-23 -9.5q-7 0 -15 4.5t-16 17.5q-16 29 -42.5 48
t-66.5 19q-42 0 -70 -20t-42 -52t-14 -70q0 -37 14 -69.5t42 -52.5t70 -20q40 0 66.5 19t42.5 48q8 14 16 18t15 4q14 0 23 -9t9 -23q0 -7 -3 -13q-24 -49 -67 -77t-102 -28z" />
    <glyph glyph-name="ordfeminine" unicode="&#xaa;" horiz-adv-x="485" 
d="M197 339q-46 0 -81 28.5t-35 78.5t39.5 78.5t121.5 28.5h76v2q0 46 -21.5 65.5t-63.5 19.5q-27 0 -49.5 -4.5t-41.5 -11.5q-6 -2 -10 -2q-13 0 -22.5 9.5t-9.5 22.5q0 10 6.5 18t16.5 12q26 10 56 17t65 7q51 0 83 -20.5t47.5 -52t15.5 -66.5v-191q0 -15 -10.5 -25.5
t-25.5 -10.5t-25.5 10.5t-10.5 25.5v9q-16 -18 -45.5 -33t-75.5 -15zM220 404q29 0 55 14t43 33v48h-68q-45 0 -71 -10.5t-26 -36.5q0 -19 14.5 -33.5t52.5 -14.5zM94 229q-11 0 -19.5 8.5t-8.5 19.5t8.5 19.5t19.5 8.5h283q11 0 19.5 -8.5t8.5 -19.5t-8.5 -19.5t-19.5 -8.5
h-283z" />
    <glyph glyph-name="guillemotleft" unicode="&#xab;" horiz-adv-x="585" 
d="M472 20q-19 0 -28 11l-164 181q-7 8 -12.5 19.5t-5.5 23.5t5.5 23.5t12.5 19.5l164 181q9 11 28 11q17 0 28 -11t11 -28q0 -15 -9 -26l-160 -170l160 -170q9 -10 9 -26q0 -17 -11 -28t-28 -11zM264 20q-19 0 -28 11l-164 181q-7 8 -12.5 19.5t-5.5 23.5t5.5 23.5
t12.5 19.5l164 181q9 11 28 11q17 0 28 -11t11 -28q0 -15 -9 -26l-160 -170l160 -170q9 -10 9 -26q0 -17 -11 -28t-28 -11z" />
    <glyph glyph-name="logicalnot" unicode="&#xac;" horiz-adv-x="579" 
d="M458 168q-16 0 -26.5 10.5t-10.5 26.5v106h-312q-15 0 -25.5 10.5t-10.5 25.5t10.5 25.5t25.5 10.5h345q17 0 29.5 -12.5t12.5 -29.5v-136q0 -16 -11 -26.5t-27 -10.5z" />
    <glyph glyph-name="uni00AD" unicode="&#xad;" horiz-adv-x="408" 
d="M109 240q-17 0 -28.5 11.5t-11.5 28.5t11.5 29t28.5 12h189q17 0 29 -12t12 -29t-12 -28.5t-29 -11.5h-189z" />
    <glyph glyph-name="registered" unicode="&#xae;" horiz-adv-x="819" 
d="M410 -10q-74 0 -139 28t-114.5 77.5t-77.5 114.5t-28 139t28 139t77.5 114.5t114.5 77.5t139 28t139 -28t114.5 -77.5t77.5 -114.5t28 -139t-28 -139t-77.5 -114.5t-114.5 -77.5t-139 -28zM409 42q64 0 119.5 24t98 66.5t66.5 98t24 119.5q0 63 -24 118.5t-66.5 97.5
t-98 66t-119.5 24q-63 0 -118.5 -24t-97.5 -66t-66 -97.5t-24 -118.5q0 -64 24 -119.5t66 -98t97.5 -66.5t118.5 -24zM294 145q-14 0 -23.5 9.5t-9.5 23.5v324q0 19 13 32.5t32 13.5h120q83 0 120 -34.5t37 -85.5q0 -38 -22.5 -62t-51.5 -35q24 -8 46.5 -37t22.5 -88v-27
q0 -14 -10 -24t-24 -10t-24 10t-10 24v18q0 17 -3 41t-18 42.5t-52 18.5h-109v-121q0 -14 -10 -23.5t-24 -9.5zM328 358h95q41 0 67.5 17t26.5 51q0 29 -20.5 46.5t-75.5 17.5h-93v-132z" />
    <glyph glyph-name="macron" unicode="&#xaf;" horiz-adv-x="312" 
d="M83 588q-13 0 -21.5 8.5t-8.5 21.5t8.5 21.5t21.5 8.5h234q13 0 21.5 -8.5t8.5 -21.5t-8.5 -21.5t-21.5 -8.5h-234z" />
    <glyph glyph-name="degree" unicode="&#xb0;" horiz-adv-x="378" 
d="M189 434q-37 0 -68.5 18.5t-50 50t-18.5 68.5q0 38 18.5 69t50 49.5t68.5 18.5q38 0 69 -18.5t49.5 -49.5t18.5 -69q0 -37 -18.5 -68.5t-49.5 -50t-69 -18.5zM189 486q35 0 60 25t25 60t-25 60t-60 25t-60 -25t-25 -60t25 -60t60 -25z" />
    <glyph glyph-name="plusminus" unicode="&#xb1;" horiz-adv-x="606" 
d="M303 145q-16 0 -27.5 11.5t-11.5 27.5v158h-164q-16 0 -27 11t-11 27q0 17 11 28t27 11h164v158q0 17 11.5 28t27.5 11q17 0 28 -11t11 -28v-158h163q17 0 28 -11t11 -28q0 -16 -11 -27t-28 -11h-163v-158q0 -16 -11 -27.5t-28 -11.5zM100 0q-16 0 -27 11t-11 27
q0 17 11 28t27 11h405q17 0 28 -11t11 -28q0 -16 -11 -27t-28 -11h-405z" />
    <glyph glyph-name="uni00B2" unicode="&#xb2;" horiz-adv-x="370" 
d="M77 310q-17 0 -28 12.5t-11 27.5q0 34 22.5 60.5t55.5 48.5t66 42.5t55.5 41.5t22.5 45q0 25 -17.5 42.5t-60.5 17.5q-31 0 -54.5 -6.5t-40.5 -15.5q-6 -3 -13 -3q-12 0 -20 7.5t-8 20.5q0 17 14 25q23 14 56 23.5t74 9.5q59 0 96 -33.5t37 -83.5q0 -34 -18.5 -61.5
t-47 -50t-59 -42t-55.5 -36.5t-36 -33h190q13 0 21.5 -8.5t8.5 -21.5t-8.5 -21t-21.5 -8h-220z" />
    <glyph glyph-name="uni00B3" unicode="&#xb3;" horiz-adv-x="370" 
d="M176 304q-78 0 -123 25q-7 4 -12 11t-5 16q0 12 9 20.5t20 8.5q3 0 5.5 -0.5t5.5 -1.5q17 -5 40 -11t51 -6q39 0 65.5 12t26.5 40q0 62 -112 62h-11q-13 0 -21.5 8.5t-8.5 21.5t8.5 21.5t21.5 8.5h5q43 0 74 12.5t31 45.5q0 29 -25.5 39.5t-52.5 10.5q-28 0 -49 -5.5
t-37 -13.5q-6 -3 -13 -3q-10 0 -19 7.5t-9 19.5q0 16 19 26q24 13 52.5 21.5t59.5 8.5q73 0 104.5 -31t31.5 -75q0 -40 -20.5 -61t-41.5 -29q27 -8 51.5 -30.5t24.5 -66.5q0 -28 -14 -54t-46 -42t-86 -16z" />
    <glyph glyph-name="acute" unicode="&#xb4;" horiz-adv-x="240" 
d="M200 567q-12 0 -19.5 7.5t-7.5 19.5q0 6 3 11.5t4 7.5l51 90q5 8 12.5 13.5t20.5 5.5q17 0 27 -10t10 -27q0 -14 -10 -25l-69 -82q-9 -11 -22 -11z" />
    <glyph glyph-name="uni00B5" unicode="&#xb5;" horiz-adv-x="604" 
d="M129 -218q-19 0 -32 13t-13 32v643q0 19 13.5 32t32.5 13t32 -13t13 -32v-274q0 -57 26 -89.5t84 -32.5q54 0 94 29.5t70 66.5v300q0 19 13.5 32t32.5 13t32 -13t13 -32v-429q0 -19 -13 -32.5t-32 -13.5t-32.5 13.5t-13.5 32.5v41q-21 -23 -46 -44t-57.5 -34.5
t-77.5 -13.5q-29 0 -52.5 8t-40.5 19v-190q0 -19 -13.5 -32t-32.5 -13z" />
    <glyph glyph-name="paragraph" unicode="&#xb6;" horiz-adv-x="732" 
d="M371 -224q-16 0 -27.5 12t-11.5 28v368h-36q-71 0 -129.5 34.5t-93 93t-34.5 129.5t34.5 129.5t93 93t129.5 34.5h352q17 0 28.5 -11.5t11.5 -28.5q0 -16 -11.5 -27.5t-28.5 -11.5h-46v-803q0 -16 -11.5 -28t-28.5 -12q-16 0 -27.5 12t-11.5 28v803h-112v-803
q0 -16 -11.5 -28t-28.5 -12z" />
    <glyph glyph-name="periodcentered" unicode="&#xb7;" horiz-adv-x="260" 
d="M125 226q-23 0 -39.5 16.5t-16.5 39.5v6q0 23 16.5 39.5t39.5 16.5h10q23 0 39.5 -16.5t16.5 -39.5v-6q0 -23 -16.5 -39.5t-39.5 -16.5h-10z" />
    <glyph glyph-name="cedilla" unicode="&#xb8;" horiz-adv-x="307" 
d="M187 -221q-16 0 -40 5t-50 21q-4 2 -7.5 7t-3.5 10q0 8 4.5 14t14.5 6q3 0 6 -1t4 -2q17 -9 31.5 -13t27.5 -4q24 0 40.5 10t16.5 36q0 15 -10.5 23t-25.5 8q-10 0 -20 -2t-24 -9q-1 -1 -4 -2t-6 -1q-7 0 -12.5 4.5t-5.5 11.5q0 5 1.5 8.5t2.5 5.5l64 102h42l-46 -80
q16 4 34 4q34 0 55.5 -19t21.5 -51q0 -46 -29 -69t-82 -23z" />
    <glyph glyph-name="uni00B9" unicode="&#xb9;" horiz-adv-x="370" 
d="M108 310q-13 0 -21 8t-8 21t8 21.5t21 8.5h60v265l-45 -22q-4 -1 -7 -2.5t-8 -1.5q-12 0 -21 8.5t-9 21.5q0 19 19 28l72 37q10 5 20 5q20 0 31.5 -12.5t11.5 -30.5v-296h50q13 0 21.5 -8.5t8.5 -21.5t-8.5 -21t-21.5 -8h-174z" />
    <glyph glyph-name="ordmasculine" unicode="&#xba;" horiz-adv-x="514" 
d="M257 339q-81 0 -129.5 51.5t-48.5 133.5q0 83 48.5 133.5t129.5 50.5t129.5 -50.5t48.5 -133.5q0 -82 -48.5 -133.5t-129.5 -51.5zM257 403q24 0 48.5 12t41 39t16.5 71t-16.5 70t-41 38t-48.5 12t-48.5 -12t-41 -38t-16.5 -70t16.5 -71t41 -39t48.5 -12zM98 229
q-11 0 -19.5 8.5t-8.5 19.5t8.5 19.5t19.5 8.5h318q11 0 19.5 -8.5t8.5 -19.5t-8.5 -19.5t-19.5 -8.5h-318z" />
    <glyph glyph-name="guillemotright" unicode="&#xbb;" horiz-adv-x="585" 
d="M321 20q-16 0 -27.5 11t-11.5 28q0 16 9 26l160 170l-160 170q-9 11 -9 26q0 17 11.5 28t27.5 11q19 0 28 -11l164 -181q8 -8 13 -19.5t5 -23.5t-5 -23.5t-13 -19.5l-164 -181q-9 -11 -28 -11zM113 20q-16 0 -27.5 11t-11.5 28q0 16 9 26l160 170l-160 170q-9 11 -9 26
q0 17 11.5 28t27.5 11q19 0 28 -11l164 -181q8 -8 13 -19.5t5 -23.5t-5 -23.5t-13 -19.5l-164 -181q-9 -11 -28 -11z" />
    <glyph glyph-name="onequarter" unicode="&#xbc;" horiz-adv-x="891" 
d="M108 310q-13 0 -21 8t-8 21t8 21.5t21 8.5h60v265l-45 -22q-4 -1 -7 -2.5t-8 -1.5q-12 0 -21 8.5t-9 21.5q0 19 19 28l72 37q10 5 20 5q20 0 31.5 -12.5t11.5 -30.5v-296h50q13 0 21.5 -8.5t8.5 -21.5t-8.5 -21t-21.5 -8h-174zM259 -24q-13 0 -23.5 9.5t-10.5 24.5
q0 8 5 18l414 682q5 8 12.5 11t15.5 3q14 0 24 -9.5t10 -24.5q0 -8 -5 -18l-414 -682q-4 -7 -12 -10.5t-16 -3.5zM769 -5q-13 0 -22.5 9.5t-9.5 22.5v69h-156q-17 0 -29.5 12.5t-12.5 29.5q0 15 11 29l165 211q7 8 15.5 14.5t20.5 6.5h8q18 0 30 -12.5t12 -29.5v-202h36
q13 0 21.5 -8.5t8.5 -21.5t-8.5 -21t-21.5 -8h-36v-69q0 -13 -9 -22.5t-23 -9.5zM610 155h127v165z" />
    <glyph glyph-name="onehalf" unicode="&#xbd;" horiz-adv-x="931" 
d="M108 310q-13 0 -21 8t-8 21t8 21.5t21 8.5h60v265l-45 -22q-4 -1 -7 -2.5t-8 -1.5q-12 0 -21 8.5t-9 21.5q0 19 19 28l72 37q10 5 20 5q20 0 31.5 -12.5t11.5 -30.5v-296h50q13 0 21.5 -8.5t8.5 -21.5t-8.5 -21t-21.5 -8h-174zM259 -24q-13 0 -23.5 9.5t-10.5 24.5
q0 8 5 18l414 682q5 8 12.5 11t15.5 3q14 0 24 -9.5t10 -24.5q0 -8 -5 -18l-414 -682q-4 -7 -12 -10.5t-16 -3.5zM638 0q-17 0 -28 12.5t-11 27.5q0 34 22.5 60.5t55.5 48.5t66 42.5t55.5 41.5t22.5 45q0 25 -17.5 42.5t-60.5 17.5q-31 0 -54.5 -6.5t-40.5 -15.5
q-6 -3 -13 -3q-12 0 -20 7.5t-8 20.5q0 17 14 25q23 14 56 23.5t74 9.5q59 0 96 -33.5t37 -83.5q0 -34 -18.5 -61.5t-47 -50t-59 -42t-55.5 -36.5t-36 -33h190q13 0 21.5 -8.5t8.5 -21.5t-8.5 -21t-21.5 -8h-220z" />
    <glyph glyph-name="threequarters" unicode="&#xbe;" horiz-adv-x="891" 
d="M176 304q-78 0 -123 25q-7 4 -12 11t-5 16q0 12 9 20.5t20 8.5q3 0 5.5 -0.5t5.5 -1.5q17 -5 40 -11t51 -6q39 0 65.5 12t26.5 40q0 62 -112 62h-11q-13 0 -21.5 8.5t-8.5 21.5t8.5 21.5t21.5 8.5h5q43 0 74 12.5t31 45.5q0 29 -25.5 39.5t-52.5 10.5q-28 0 -49 -5.5
t-37 -13.5q-6 -3 -13 -3q-10 0 -19 7.5t-9 19.5q0 16 19 26q24 13 52.5 21.5t59.5 8.5q73 0 104.5 -31t31.5 -75q0 -40 -20.5 -61t-41.5 -29q27 -8 51.5 -30.5t24.5 -66.5q0 -28 -14 -54t-46 -42t-86 -16zM259 -24q-13 0 -23.5 9.5t-10.5 24.5q0 8 5 18l414 682q5 8 12.5 11
t15.5 3q14 0 24 -9.5t10 -24.5q0 -8 -5 -18l-414 -682q-4 -7 -12 -10.5t-16 -3.5zM769 -5q-13 0 -22.5 9.5t-9.5 22.5v69h-156q-17 0 -29.5 12.5t-12.5 29.5q0 15 11 29l165 211q7 8 15.5 14.5t20.5 6.5h8q18 0 30 -12.5t12 -29.5v-202h36q13 0 21.5 -8.5t8.5 -21.5
t-8.5 -21t-21.5 -8h-36v-69q0 -13 -9 -22.5t-23 -9.5zM610 155h127v165z" />
    <glyph glyph-name="questiondown" unicode="&#xbf;" horiz-adv-x="488" 
d="M273 395q-25 0 -42.5 17.5t-17.5 41.5q0 25 17.5 42.5t42.5 17.5q24 0 41.5 -17.5t17.5 -42.5q0 -24 -17.5 -41.5t-41.5 -17.5zM265 -198q-102 0 -163.5 51t-61.5 138q0 48 19 80t47 55.5t55.5 45.5t46.5 48.5t19 64.5q0 17 13.5 28t30.5 11q19 0 31.5 -11.5t12.5 -27.5
q0 -51 -18.5 -86.5t-46 -61t-55.5 -46.5t-46.5 -43.5t-18.5 -51.5q0 -51 33.5 -80t109.5 -29q34 0 68 8.5t60 24.5q12 8 25 8q17 0 28.5 -11.5t11.5 -28.5q0 -14 -7.5 -23t-17.5 -15q-42 -26 -84 -37t-92 -11z" />
    <glyph glyph-name="Agrave" unicode="&#xc0;" horiz-adv-x="746" 
d="M95 -5q-21 0 -33 13t-12 32q0 8 5 20l255 602q7 16 21.5 28.5t36.5 12.5h10q23 0 37 -12.5t21 -28.5l255 -602q5 -12 5 -20q0 -19 -12 -32t-33 -13q-31 0 -43 28l-65 156h-340l-65 -156q-12 -28 -43 -28zM238 262h270l-135 325zM373 739q-13 0 -22 11l-69 82
q-10 11 -10 25q0 17 10.5 27t26.5 10q13 0 21 -5.5t12 -13.5l51 -90q2 -2 4.5 -7.5t2.5 -11.5q0 -12 -7.5 -19.5t-19.5 -7.5z" />
    <glyph glyph-name="Aacute" unicode="&#xc1;" horiz-adv-x="746" 
d="M95 -5q-21 0 -33 13t-12 32q0 8 5 20l255 602q7 16 21.5 28.5t36.5 12.5h10q23 0 37 -12.5t21 -28.5l255 -602q5 -12 5 -20q0 -19 -12 -32t-33 -13q-31 0 -43 28l-65 156h-340l-65 -156q-12 -28 -43 -28zM238 262h270l-135 325zM373 739q-12 0 -19.5 7.5t-7.5 19.5
q0 6 3 11.5t4 7.5l51 90q5 8 12.5 13.5t20.5 5.5q17 0 27 -10t10 -27q0 -14 -10 -25l-69 -82q-9 -11 -22 -11z" />
    <glyph glyph-name="Acircumflex" unicode="&#xc2;" horiz-adv-x="746" 
d="M95 -5q-21 0 -33 13t-12 32q0 8 5 20l255 602q7 16 21.5 28.5t36.5 12.5h10q23 0 37 -12.5t21 -28.5l255 -602q5 -12 5 -20q0 -19 -12 -32t-33 -13q-31 0 -43 28l-65 156h-340l-65 -156q-12 -28 -43 -28zM238 262h270l-135 325zM268 738q-13 0 -22 9.5t-8 20.5q0 11 8 19
l68 70q8 8 17 14t23 6h38q14 0 23.5 -6t16.5 -14l68 -70q8 -8 8 -19q1 -11 -8 -20.5t-22 -9.5q-11 0 -18 7l-87 74l-87 -74q-7 -7 -18 -7z" />
    <glyph glyph-name="Atilde" unicode="&#xc3;" horiz-adv-x="746" 
d="M95 -5q-21 0 -33 13t-12 32q0 8 5 20l255 602q7 16 21.5 28.5t36.5 12.5h10q23 0 37 -12.5t21 -28.5l255 -602q5 -12 5 -20q0 -19 -12 -32t-33 -13q-31 0 -43 28l-65 156h-340l-65 -156q-12 -28 -43 -28zM238 262h270l-135 325zM235 743q-9 0 -16 6.5t-7 16.5q0 20 10 42
t29 37.5t45 15.5q29 0 54 -11.5t49 -23.5t51 -12q16 0 24.5 7t12.5 20q3 8 8.5 14.5t16.5 6.5t16.5 -6.5t6.5 -15.5q0 -21 -10.5 -43t-29.5 -37t-44 -15q-30 0 -55 12t-49 24t-50 12q-15 0 -24 -9t-15 -23q-2 -7 -7.5 -12.5t-15.5 -5.5z" />
    <glyph glyph-name="Adieresis" unicode="&#xc4;" horiz-adv-x="746" 
d="M95 -5q-21 0 -33 13t-12 32q0 8 5 20l255 602q7 16 21.5 28.5t36.5 12.5h10q23 0 37 -12.5t21 -28.5l255 -602q5 -12 5 -20q0 -19 -12 -32t-33 -13q-31 0 -43 28l-65 156h-340l-65 -156q-12 -28 -43 -28zM238 262h270l-135 325zM457 747q-21 0 -36 15t-15 36t15 36t36 15
t36 -15t15 -36t-15 -36t-36 -15zM289 747q-21 0 -36 15t-15 36t15 36t36 15t36 -15t15 -36t-15 -36t-36 -15z" />
    <glyph glyph-name="Aring" unicode="&#xc5;" horiz-adv-x="746" 
d="M95 -5q-21 0 -33 13t-12 32q0 8 5 20l255 602q7 16 21.5 28.5t36.5 12.5h10q23 0 37 -12.5t21 -28.5l255 -602q5 -12 5 -20q0 -19 -12 -32t-33 -13q-31 0 -43 28l-65 156h-340l-65 -156q-12 -28 -43 -28zM238 262h270l-135 325zM373 723q-39 0 -66.5 27.5t-27.5 66.5
t27.5 66.5t66.5 27.5t66.5 -27.5t27.5 -66.5t-27.5 -66.5t-66.5 -27.5zM373 768q20 0 34.5 14.5t14.5 34.5t-14.5 34.5t-34.5 14.5t-34.5 -14.5t-14.5 -34.5t14.5 -34.5t34.5 -14.5z" />
    <glyph glyph-name="AE" unicode="&#xc6;" horiz-adv-x="1040" 
d="M48 -5q-19 0 -32.5 13t-13.5 32q0 8 3 14.5t7 13.5l399 605q17 25 46 25h488q18 0 30.5 -12.5t12.5 -30.5t-12.5 -30t-30.5 -12h-355v-221h319q18 0 30.5 -12.5t12.5 -30.5t-12.5 -30t-30.5 -12h-319v-222h355q18 0 30.5 -12.5t12.5 -30.5t-12.5 -30t-30.5 -12h-401
q-19 0 -32 13t-13 32v134h-308l-102 -158q-7 -10 -17 -18t-24 -8zM245 262h254v351h-25z" />
    <glyph glyph-name="Ccedilla" unicode="&#xc7;" horiz-adv-x="695" 
d="M405 -10q-99 0 -178.5 43.5t-125.5 124t-46 191.5q0 112 46 192t125.5 123.5t178.5 43.5q74 0 128 -18t100 -44q10 -5 15.5 -13.5t6.5 -22.5q1 -16 -10 -28t-30 -12q-10 0 -18 4q-40 21 -82 34t-101 13q-88 0 -148 -36t-90 -97.5t-30 -138.5t30 -138.5t90 -97.5t148 -36
q59 0 101 13t82 34q8 4 18 4q19 0 30 -12t10 -28q-1 -14 -6.5 -22.5t-15.5 -13.5q-46 -26 -100 -44t-128 -18zM382 -221q-16 0 -40 5t-50 21q-4 2 -7.5 7t-3.5 10q0 8 4.5 14t14.5 6q3 0 6 -1t4 -2q17 -9 31.5 -13t27.5 -4q24 0 40.5 10t16.5 36q0 15 -10.5 23t-25.5 8
q-10 0 -20 -2t-24 -9q-1 -1 -4 -2t-6 -1q-7 0 -12.5 4.5t-5.5 11.5q0 5 1.5 8.5t2.5 5.5l64 102h42l-46 -80q16 4 34 4q34 0 55.5 -19t21.5 -51q0 -46 -29 -69t-82 -23z" />
    <glyph glyph-name="Egrave" unicode="&#xc8;" horiz-adv-x="638" 
d="M142 0q-19 0 -32 13t-13 32v607q0 19 13 32.5t32 13.5h401q18 0 30.5 -12.5t12.5 -30.5t-12.5 -30t-30.5 -12h-355v-221h319q18 0 30.5 -12.5t12.5 -30.5t-12.5 -30t-30.5 -12h-319v-222h355q18 0 30.5 -12.5t12.5 -30.5t-12.5 -30t-30.5 -12h-401zM342 739q-13 0 -22 11
l-69 82q-10 11 -10 25q0 17 10.5 27t26.5 10q13 0 21 -5.5t12 -13.5l51 -90q2 -2 4.5 -7.5t2.5 -11.5q0 -12 -7.5 -19.5t-19.5 -7.5z" />
    <glyph glyph-name="Eacute" unicode="&#xc9;" horiz-adv-x="638" 
d="M142 0q-19 0 -32 13t-13 32v607q0 19 13 32.5t32 13.5h401q18 0 30.5 -12.5t12.5 -30.5t-12.5 -30t-30.5 -12h-355v-221h319q18 0 30.5 -12.5t12.5 -30.5t-12.5 -30t-30.5 -12h-319v-222h355q18 0 30.5 -12.5t12.5 -30.5t-12.5 -30t-30.5 -12h-401zM342 739
q-12 0 -19.5 7.5t-7.5 19.5q0 6 3 11.5t4 7.5l51 90q5 8 12.5 13.5t20.5 5.5q17 0 27 -10t10 -27q0 -14 -10 -25l-69 -82q-9 -11 -22 -11z" />
    <glyph glyph-name="Ecircumflex" unicode="&#xca;" horiz-adv-x="638" 
d="M142 0q-19 0 -32 13t-13 32v607q0 19 13 32.5t32 13.5h401q18 0 30.5 -12.5t12.5 -30.5t-12.5 -30t-30.5 -12h-355v-221h319q18 0 30.5 -12.5t12.5 -30.5t-12.5 -30t-30.5 -12h-319v-222h355q18 0 30.5 -12.5t12.5 -30.5t-12.5 -30t-30.5 -12h-401zM237 738
q-13 0 -22 9.5t-8 20.5q0 11 8 19l68 70q8 8 17 14t23 6h38q14 0 23.5 -6t16.5 -14l68 -70q8 -8 8 -19q1 -11 -8 -20.5t-22 -9.5q-11 0 -18 7l-87 74l-87 -74q-7 -7 -18 -7z" />
    <glyph glyph-name="Edieresis" unicode="&#xcb;" horiz-adv-x="638" 
d="M142 0q-19 0 -32 13t-13 32v607q0 19 13 32.5t32 13.5h401q18 0 30.5 -12.5t12.5 -30.5t-12.5 -30t-30.5 -12h-355v-221h319q18 0 30.5 -12.5t12.5 -30.5t-12.5 -30t-30.5 -12h-319v-222h355q18 0 30.5 -12.5t12.5 -30.5t-12.5 -30t-30.5 -12h-401zM426 747q-21 0 -36 15
t-15 36t15 36t36 15t36 -15t15 -36t-15 -36t-36 -15zM258 747q-21 0 -36 15t-15 36t15 36t36 15t36 -15t15 -36t-15 -36t-36 -15z" />
    <glyph glyph-name="Igrave" unicode="&#xcc;" horiz-adv-x="285" 
d="M142 -5q-19 0 -32 13t-13 32v617q0 19 13 32.5t32 13.5t32.5 -13.5t13.5 -32.5v-617q0 -19 -13.5 -32t-32.5 -13zM143 739q-13 0 -22 11l-69 82q-10 11 -10 25q0 17 10.5 27t26.5 10q13 0 21 -5.5t12 -13.5l51 -90q2 -2 4.5 -7.5t2.5 -11.5q0 -12 -7.5 -19.5t-19.5 -7.5z
" />
    <glyph glyph-name="Iacute" unicode="&#xcd;" horiz-adv-x="285" 
d="M142 -5q-19 0 -32 13t-13 32v617q0 19 13 32.5t32 13.5t32.5 -13.5t13.5 -32.5v-617q0 -19 -13.5 -32t-32.5 -13zM143 739q-12 0 -19.5 7.5t-7.5 19.5q0 6 3 11.5t4 7.5l51 90q5 8 12.5 13.5t20.5 5.5q17 0 27 -10t10 -27q0 -14 -10 -25l-69 -82q-9 -11 -22 -11z" />
    <glyph glyph-name="Icircumflex" unicode="&#xce;" horiz-adv-x="285" 
d="M142 -5q-19 0 -32 13t-13 32v617q0 19 13 32.5t32 13.5t32.5 -13.5t13.5 -32.5v-617q0 -19 -13.5 -32t-32.5 -13zM38 738q-13 0 -22 9.5t-8 20.5q0 11 8 19l68 70q8 8 17 14t23 6h38q14 0 23.5 -6t16.5 -14l68 -70q8 -8 8 -19q1 -11 -8 -20.5t-22 -9.5q-11 0 -18 7
l-87 74l-87 -74q-7 -7 -18 -7z" />
    <glyph glyph-name="Idieresis" unicode="&#xcf;" horiz-adv-x="285" 
d="M142 -5q-19 0 -32 13t-13 32v617q0 19 13 32.5t32 13.5t32.5 -13.5t13.5 -32.5v-617q0 -19 -13.5 -32t-32.5 -13zM227 747q-21 0 -36 15t-15 36t15 36t36 15t36 -15t15 -36t-15 -36t-36 -15zM59 747q-21 0 -36 15t-15 36t15 36t36 15t36 -15t15 -36t-15 -36t-36 -15z" />
    <glyph glyph-name="Eth" unicode="&#xd0;" horiz-adv-x="756" 
d="M147 0q-19 0 -32 13t-13 32v270h-54q-14 0 -23.5 9.5t-9.5 23.5t9.5 24t23.5 10h54v270q0 19 13 32.5t32 13.5h201q90 0 156 -30.5t110 -81t65.5 -112.5t21.5 -125t-21.5 -125t-65.5 -112.5t-110 -81t-156 -30.5h-201zM193 85h144q84 0 145.5 33.5t95 93t33.5 137.5
t-33.5 137.5t-95 93t-145.5 33.5h-144v-231h117q14 0 24 -10t10 -24t-10 -23.5t-24 -9.5h-117v-230z" />
    <glyph glyph-name="Ntilde" unicode="&#xd1;" horiz-adv-x="803" 
d="M142 -5q-19 0 -32 13t-13 32v597q0 27 19 46.5t46 19.5h13q17 0 31 -8t24 -22l385 -556v540q0 19 13 32.5t32 13.5t32.5 -13.5t13.5 -32.5v-597q0 -27 -19.5 -46t-46.5 -19h-12q-16 0 -30 7.5t-23 19.5l-387 559v-541q0 -19 -13.5 -32t-32.5 -13zM264 743q-9 0 -16 6.5
t-7 16.5q0 20 10 42t29 37.5t45 15.5q29 0 54 -11.5t49 -23.5t51 -12q16 0 24.5 7t12.5 20q3 8 8.5 14.5t16.5 6.5t16.5 -6.5t6.5 -15.5q0 -21 -10.5 -43t-29.5 -37t-44 -15q-30 0 -55 12t-49 24t-50 12q-15 0 -24 -9t-15 -23q-2 -7 -7.5 -12.5t-15.5 -5.5z" />
    <glyph glyph-name="Ograve" unicode="&#xd2;" horiz-adv-x="812" 
d="M406 -10q-107 0 -185 46t-121 127t-45 186q2 105 45 186t121 127t185 46t185 -46t121 -127t45 -186q-2 -105 -45 -186t-121 -127t-185 -46zM406 75q83 0 141 36.5t88.5 98.5t30.5 139t-30.5 139t-88.5 98.5t-141 36.5t-141 -36.5t-88.5 -98.5t-30.5 -139t30.5 -139
t88.5 -98.5t141 -36.5zM406 739q-13 0 -22 11l-69 82q-10 11 -10 25q0 17 10.5 27t26.5 10q13 0 21 -5.5t12 -13.5l51 -90q2 -2 4.5 -7.5t2.5 -11.5q0 -12 -7.5 -19.5t-19.5 -7.5z" />
    <glyph glyph-name="Oacute" unicode="&#xd3;" horiz-adv-x="812" 
d="M406 -10q-107 0 -185 46t-121 127t-45 186q2 105 45 186t121 127t185 46t185 -46t121 -127t45 -186q-2 -105 -45 -186t-121 -127t-185 -46zM406 75q83 0 141 36.5t88.5 98.5t30.5 139t-30.5 139t-88.5 98.5t-141 36.5t-141 -36.5t-88.5 -98.5t-30.5 -139t30.5 -139
t88.5 -98.5t141 -36.5zM406 739q-12 0 -19.5 7.5t-7.5 19.5q0 6 3 11.5t4 7.5l51 90q5 8 12.5 13.5t20.5 5.5q17 0 27 -10t10 -27q0 -14 -10 -25l-69 -82q-9 -11 -22 -11z" />
    <glyph glyph-name="Ocircumflex" unicode="&#xd4;" horiz-adv-x="812" 
d="M406 -10q-107 0 -185 46t-121 127t-45 186q2 105 45 186t121 127t185 46t185 -46t121 -127t45 -186q-2 -105 -45 -186t-121 -127t-185 -46zM406 75q83 0 141 36.5t88.5 98.5t30.5 139t-30.5 139t-88.5 98.5t-141 36.5t-141 -36.5t-88.5 -98.5t-30.5 -139t30.5 -139
t88.5 -98.5t141 -36.5zM301 738q-13 0 -22 9.5t-8 20.5q0 11 8 19l68 70q8 8 17 14t23 6h38q14 0 23.5 -6t16.5 -14l68 -70q8 -8 8 -19q1 -11 -8 -20.5t-22 -9.5q-11 0 -18 7l-87 74l-87 -74q-7 -7 -18 -7z" />
    <glyph glyph-name="Otilde" unicode="&#xd5;" horiz-adv-x="812" 
d="M406 -10q-107 0 -185 46t-121 127t-45 186q2 105 45 186t121 127t185 46t185 -46t121 -127t45 -186q-2 -105 -45 -186t-121 -127t-185 -46zM406 75q83 0 141 36.5t88.5 98.5t30.5 139t-30.5 139t-88.5 98.5t-141 36.5t-141 -36.5t-88.5 -98.5t-30.5 -139t30.5 -139
t88.5 -98.5t141 -36.5zM268 743q-9 0 -16 6.5t-7 16.5q0 20 10 42t29 37.5t45 15.5q29 0 54 -11.5t49 -23.5t51 -12q16 0 24.5 7t12.5 20q3 8 8.5 14.5t16.5 6.5t16.5 -6.5t6.5 -15.5q0 -21 -10.5 -43t-29.5 -37t-44 -15q-30 0 -55 12t-49 24t-50 12q-15 0 -24 -9t-15 -23
q-2 -7 -7.5 -12.5t-15.5 -5.5z" />
    <glyph glyph-name="Odieresis" unicode="&#xd6;" horiz-adv-x="812" 
d="M406 -10q-107 0 -185 46t-121 127t-45 186q2 105 45 186t121 127t185 46t185 -46t121 -127t45 -186q-2 -105 -45 -186t-121 -127t-185 -46zM406 75q83 0 141 36.5t88.5 98.5t30.5 139t-30.5 139t-88.5 98.5t-141 36.5t-141 -36.5t-88.5 -98.5t-30.5 -139t30.5 -139
t88.5 -98.5t141 -36.5zM490 747q-21 0 -36 15t-15 36t15 36t36 15t36 -15t15 -36t-15 -36t-36 -15zM322 747q-21 0 -36 15t-15 36t15 36t36 15t36 -15t15 -36t-15 -36t-36 -15z" />
    <glyph glyph-name="multiply" unicode="&#xd7;" horiz-adv-x="563" 
d="M97 36q-16 0 -27 11.5t-11 26.5t12 27l157 157l-157 157q-12 12 -12 27t11 26.5t27 11.5q15 0 27 -12l157 -157l157 157q12 12 27 12q17 0 27.5 -11.5t10.5 -26.5t-12 -27l-157 -157l157 -157q12 -12 12 -27t-10.5 -26.5t-27.5 -11.5q-15 0 -27 12l-157 157l-157 -157
q-12 -12 -27 -12z" />
    <glyph glyph-name="Oslash" unicode="&#xd8;" horiz-adv-x="812" 
d="M158 -30q-11 0 -18 7t-7 17q0 8 6 17l39 55q-58 48 -89.5 121t-33.5 162q2 105 45 186t121 127t185 46q54 0 101.5 -13t86.5 -36l40 58q7 10 21 10q11 0 18 -7t7 -17q0 -8 -6 -17l-39 -56q57 -48 88.5 -120t33.5 -161q-2 -105 -45 -186t-121 -127t-185 -46
q-54 0 -101 12.5t-86 34.5l-40 -57q-7 -10 -21 -10zM229 139l314 449q-28 17 -62.5 26t-74.5 9q-83 0 -141 -36.5t-88.5 -98.5t-30.5 -139q0 -64 21.5 -118t61.5 -92zM406 75q83 0 141 36.5t88.5 98.5t30.5 139q0 63 -21 117.5t-61 91.5l-315 -449q59 -34 137 -34z" />
    <glyph glyph-name="Ugrave" unicode="&#xd9;" horiz-adv-x="758" 
d="M379 -10q-50 0 -101 16t-93 49.5t-67.5 85t-25.5 121.5v395q0 19 13 32.5t32 13.5t32.5 -13.5t13.5 -32.5v-398q0 -62 28.5 -103.5t73.5 -62t94 -20.5t94 20.5t73.5 62t28.5 103.5v398q0 19 13 32.5t32 13.5t32.5 -13.5t13.5 -32.5v-395q0 -70 -25.5 -121.5t-67.5 -85
t-93 -49.5t-101 -16zM379 739q-13 0 -22 11l-69 82q-10 11 -10 25q0 17 10.5 27t26.5 10q13 0 21 -5.5t12 -13.5l51 -90q2 -2 4.5 -7.5t2.5 -11.5q0 -12 -7.5 -19.5t-19.5 -7.5z" />
    <glyph glyph-name="Uacute" unicode="&#xda;" horiz-adv-x="758" 
d="M379 -10q-50 0 -101 16t-93 49.5t-67.5 85t-25.5 121.5v395q0 19 13 32.5t32 13.5t32.5 -13.5t13.5 -32.5v-398q0 -62 28.5 -103.5t73.5 -62t94 -20.5t94 20.5t73.5 62t28.5 103.5v398q0 19 13 32.5t32 13.5t32.5 -13.5t13.5 -32.5v-395q0 -70 -25.5 -121.5t-67.5 -85
t-93 -49.5t-101 -16zM379 739q-12 0 -19.5 7.5t-7.5 19.5q0 6 3 11.5t4 7.5l51 90q5 8 12.5 13.5t20.5 5.5q17 0 27 -10t10 -27q0 -14 -10 -25l-69 -82q-9 -11 -22 -11z" />
    <glyph glyph-name="Ucircumflex" unicode="&#xdb;" horiz-adv-x="758" 
d="M379 -10q-50 0 -101 16t-93 49.5t-67.5 85t-25.5 121.5v395q0 19 13 32.5t32 13.5t32.5 -13.5t13.5 -32.5v-398q0 -62 28.5 -103.5t73.5 -62t94 -20.5t94 20.5t73.5 62t28.5 103.5v398q0 19 13 32.5t32 13.5t32.5 -13.5t13.5 -32.5v-395q0 -70 -25.5 -121.5t-67.5 -85
t-93 -49.5t-101 -16zM274 738q-13 0 -22 9.5t-8 20.5q0 11 8 19l68 70q8 8 17 14t23 6h38q14 0 23.5 -6t16.5 -14l68 -70q8 -8 8 -19q1 -11 -8 -20.5t-22 -9.5q-11 0 -18 7l-87 74l-87 -74q-7 -7 -18 -7z" />
    <glyph glyph-name="Udieresis" unicode="&#xdc;" horiz-adv-x="758" 
d="M379 -10q-50 0 -101 16t-93 49.5t-67.5 85t-25.5 121.5v395q0 19 13 32.5t32 13.5t32.5 -13.5t13.5 -32.5v-398q0 -62 28.5 -103.5t73.5 -62t94 -20.5t94 20.5t73.5 62t28.5 103.5v398q0 19 13 32.5t32 13.5t32.5 -13.5t13.5 -32.5v-395q0 -70 -25.5 -121.5t-67.5 -85
t-93 -49.5t-101 -16zM463 747q-21 0 -36 15t-15 36t15 36t36 15t36 -15t15 -36t-15 -36t-36 -15zM295 747q-21 0 -36 15t-15 36t15 36t36 15t36 -15t15 -36t-15 -36t-36 -15z" />
    <glyph glyph-name="Yacute" unicode="&#xdd;" horiz-adv-x="639" 
d="M320 -5q-19 0 -32.5 13t-13.5 32v255l-239 335q-8 13 -8 27q0 19 12.5 32.5t31.5 13.5q25 0 40 -23l209 -304l209 304q15 23 40 23q20 0 32.5 -13.5t11.5 -32.5q0 -14 -8 -27l-240 -335v-255q0 -19 -13 -32t-32 -13zM320 739q-12 0 -19.5 7.5t-7.5 19.5q0 6 3 11.5t4 7.5
l51 90q5 8 12.5 13.5t20.5 5.5q17 0 27 -10t10 -27q0 -14 -10 -25l-69 -82q-9 -11 -22 -11z" />
    <glyph glyph-name="Thorn" unicode="&#xde;" horiz-adv-x="672" 
d="M142 -5q-19 0 -32 13t-13 32v617q0 19 13 32.5t32 13.5t32.5 -13.5t13.5 -32.5v-71h182q76 0 127.5 -19.5t82 -52t44 -71.5t13.5 -79t-13.5 -79t-44 -71.5t-82 -52t-127.5 -19.5h-182v-102q0 -19 -13.5 -32t-32.5 -13zM188 228h173q75 0 115 20.5t55 52t15 63.5
q0 33 -15 64t-55 51.5t-115 20.5h-173v-272z" />
    <glyph glyph-name="germandbls" unicode="&#xdf;" horiz-adv-x="608" 
d="M373 -10q-33 0 -61 5t-50 12q-13 5 -22.5 14t-9.5 24q0 17 11 28t28 11q8 0 15 -3q30 -10 74 -10q19 0 46 9t47.5 33.5t20.5 71.5q0 59 -49 91.5t-123 32.5q-18 0 -28 10.5t-10 26.5q0 15 11 25t27 12q62 7 97.5 39t35.5 80q0 56 -34.5 88.5t-94.5 32.5q-32 0 -63 -12
t-51 -44t-20 -92v-434q0 -19 -13.5 -32t-32.5 -13t-32 13t-13 32v445q0 72 29 121.5t80 75t117 25.5q38 0 77 -11.5t71 -35.5t51.5 -61t19.5 -88t-16.5 -83t-41.5 -50t-52 -27q31 -7 65.5 -26.5t59 -56t24.5 -95.5q0 -62 -27.5 -103t-71 -61t-91.5 -20z" />
    <glyph glyph-name="agrave" unicode="&#xe0;" horiz-adv-x="562" 
d="M209 -10q-43 0 -80.5 18t-60 51.5t-22.5 80.5q0 71 56.5 116.5t173.5 45.5h121v8q0 67 -33 95.5t-101 28.5q-42 0 -73.5 -7.5t-59.5 -16.5q-8 -2 -13 -2q-15 0 -26 11t-11 27q0 27 26 38q35 15 77.5 25.5t95.5 10.5q73 0 119 -29t68 -74t22 -94v-283q0 -19 -13.5 -32
t-32.5 -13t-32 13t-13 32v26q-27 -28 -72 -52t-116 -24zM243 70q47 0 88 23t66 52v84h-109q-70 0 -110.5 -18t-40.5 -61q0 -32 22.5 -56t83.5 -24zM279 567q-13 0 -22 11l-69 82q-10 11 -10 25q0 17 10.5 27t26.5 10q13 0 21 -5.5t12 -13.5l51 -90q2 -2 4.5 -7.5t2.5 -11.5
q0 -12 -7.5 -19.5t-19.5 -7.5z" />
    <glyph glyph-name="aacute" unicode="&#xe1;" horiz-adv-x="562" 
d="M209 -10q-43 0 -80.5 18t-60 51.5t-22.5 80.5q0 71 56.5 116.5t173.5 45.5h121v8q0 67 -33 95.5t-101 28.5q-42 0 -73.5 -7.5t-59.5 -16.5q-8 -2 -13 -2q-15 0 -26 11t-11 27q0 27 26 38q35 15 77.5 25.5t95.5 10.5q73 0 119 -29t68 -74t22 -94v-283q0 -19 -13.5 -32
t-32.5 -13t-32 13t-13 32v26q-27 -28 -72 -52t-116 -24zM243 70q47 0 88 23t66 52v84h-109q-70 0 -110.5 -18t-40.5 -61q0 -32 22.5 -56t83.5 -24zM279 567q-12 0 -19.5 7.5t-7.5 19.5q0 6 3 11.5t4 7.5l51 90q5 8 12.5 13.5t20.5 5.5q17 0 27 -10t10 -27q0 -14 -10 -25
l-69 -82q-9 -11 -22 -11z" />
    <glyph glyph-name="acircumflex" unicode="&#xe2;" horiz-adv-x="562" 
d="M209 -10q-43 0 -80.5 18t-60 51.5t-22.5 80.5q0 71 56.5 116.5t173.5 45.5h121v8q0 67 -33 95.5t-101 28.5q-42 0 -73.5 -7.5t-59.5 -16.5q-8 -2 -13 -2q-15 0 -26 11t-11 27q0 27 26 38q35 15 77.5 25.5t95.5 10.5q73 0 119 -29t68 -74t22 -94v-283q0 -19 -13.5 -32
t-32.5 -13t-32 13t-13 32v26q-27 -28 -72 -52t-116 -24zM243 70q47 0 88 23t66 52v84h-109q-70 0 -110.5 -18t-40.5 -61q0 -32 22.5 -56t83.5 -24zM174 566q-13 0 -22 9.5t-8 20.5q0 11 8 19l68 70q8 8 17 14t23 6h38q14 0 23.5 -6t16.5 -14l68 -70q8 -8 8 -19
q1 -11 -8 -20.5t-22 -9.5q-11 0 -18 7l-87 74l-87 -74q-7 -7 -18 -7z" />
    <glyph glyph-name="atilde" unicode="&#xe3;" horiz-adv-x="562" 
d="M209 -10q-43 0 -80.5 18t-60 51.5t-22.5 80.5q0 71 56.5 116.5t173.5 45.5h121v8q0 67 -33 95.5t-101 28.5q-42 0 -73.5 -7.5t-59.5 -16.5q-8 -2 -13 -2q-15 0 -26 11t-11 27q0 27 26 38q35 15 77.5 25.5t95.5 10.5q73 0 119 -29t68 -74t22 -94v-283q0 -19 -13.5 -32
t-32.5 -13t-32 13t-13 32v26q-27 -28 -72 -52t-116 -24zM243 70q47 0 88 23t66 52v84h-109q-70 0 -110.5 -18t-40.5 -61q0 -32 22.5 -56t83.5 -24zM141 571q-9 0 -16 6.5t-7 16.5q0 20 10 42t29 37.5t45 15.5q29 0 54 -11.5t49 -23.5t51 -12q16 0 24.5 7t12.5 20
q3 8 8.5 14.5t16.5 6.5t16.5 -6.5t6.5 -15.5q0 -21 -10.5 -43t-29.5 -37t-44 -15q-30 0 -55 12t-49 24t-50 12q-15 0 -24 -9t-15 -23q-2 -7 -7.5 -12.5t-15.5 -5.5z" />
    <glyph glyph-name="adieresis" unicode="&#xe4;" horiz-adv-x="562" 
d="M209 -10q-43 0 -80.5 18t-60 51.5t-22.5 80.5q0 71 56.5 116.5t173.5 45.5h121v8q0 67 -33 95.5t-101 28.5q-42 0 -73.5 -7.5t-59.5 -16.5q-8 -2 -13 -2q-15 0 -26 11t-11 27q0 27 26 38q35 15 77.5 25.5t95.5 10.5q73 0 119 -29t68 -74t22 -94v-283q0 -19 -13.5 -32
t-32.5 -13t-32 13t-13 32v26q-27 -28 -72 -52t-116 -24zM243 70q47 0 88 23t66 52v84h-109q-70 0 -110.5 -18t-40.5 -61q0 -32 22.5 -56t83.5 -24zM363 575q-21 0 -36 15t-15 36t15 36t36 15t36 -15t15 -36t-15 -36t-36 -15zM195 575q-21 0 -36 15t-15 36t15 36t36 15
t36 -15t15 -36t-15 -36t-36 -15z" />
    <glyph glyph-name="aring" unicode="&#xe5;" horiz-adv-x="562" 
d="M209 -10q-43 0 -80.5 18t-60 51.5t-22.5 80.5q0 71 56.5 116.5t173.5 45.5h121v8q0 67 -33 95.5t-101 28.5q-42 0 -73.5 -7.5t-59.5 -16.5q-8 -2 -13 -2q-15 0 -26 11t-11 27q0 27 26 38q35 15 77.5 25.5t95.5 10.5q73 0 119 -29t68 -74t22 -94v-283q0 -19 -13.5 -32
t-32.5 -13t-32 13t-13 32v26q-27 -28 -72 -52t-116 -24zM243 70q47 0 88 23t66 52v84h-109q-70 0 -110.5 -18t-40.5 -61q0 -32 22.5 -56t83.5 -24zM279 551q-39 0 -66.5 27.5t-27.5 66.5t27.5 66.5t66.5 27.5t66.5 -27.5t27.5 -66.5t-27.5 -66.5t-66.5 -27.5zM279 596
q20 0 34.5 14.5t14.5 34.5t-14.5 34.5t-34.5 14.5t-34.5 -14.5t-14.5 -34.5t14.5 -34.5t34.5 -14.5z" />
    <glyph glyph-name="ae" unicode="&#xe6;" horiz-adv-x="911" 
d="M242 -10q-53 0 -97.5 18t-71.5 51.5t-27 80.5q0 71 56.5 115t173.5 44h121v11q0 67 -33 95.5t-101 28.5q-42 0 -73.5 -7.5t-59.5 -16.5q-8 -2 -13 -2q-15 0 -26 11t-11 27q0 27 26 38q35 15 77.5 25.5t95.5 10.5q65 0 107 -23.5t64 -60.5q29 38 73.5 61t107.5 23
q75 0 128.5 -32.5t82 -89.5t28.5 -129q0 -16 -11.5 -29.5t-32.5 -13.5h-344q8 -67 49 -109t128 -42q45 0 76 8.5t59 22.5q8 4 18 4q16 0 28 -11t12 -28q0 -12 -7.5 -21.5t-18.5 -15.5q-33 -19 -71.5 -31.5t-103.5 -12.5q-68 0 -119.5 22.5t-83.5 64.5q-23 -36 -58.5 -55
t-74.5 -25.5t-73 -6.5zM482 299h298q-3 52 -26.5 83.5t-57 46t-65.5 14.5t-65.5 -14.5t-57 -46t-26.5 -83.5zM260 70q31 0 62.5 8t53 29.5t21.5 61.5v57h-109q-70 0 -110.5 -16.5t-40.5 -59.5q0 -32 31 -56t92 -24z" />
    <glyph glyph-name="ccedilla" unicode="&#xe7;" horiz-adv-x="533" 
d="M315 -10q-71 0 -132 31.5t-98 91t-37 142.5q0 84 37 143t98 90.5t132 31.5q59 0 98.5 -15.5t64.5 -32.5q20 -13 20 -35q0 -14 -11 -27t-27 -13q-11 0 -22 6q-26 14 -51 23t-64 9q-87 0 -135.5 -50t-48.5 -130t48.5 -130t135.5 -50q39 0 64 9.5t51 22.5q11 6 22 6
q16 0 27 -13t11 -27q0 -22 -20 -35q-25 -16 -64.5 -32t-98.5 -16zM285 -221q-16 0 -40 5t-50 21q-4 2 -7.5 7t-3.5 10q0 8 4.5 14t14.5 6q3 0 6 -1t4 -2q17 -9 31.5 -13t27.5 -4q24 0 40.5 10t16.5 36q0 15 -10.5 23t-25.5 8q-10 0 -20 -2t-24 -9q-1 -1 -4 -2t-6 -1
q-7 0 -12.5 4.5t-5.5 11.5q0 5 1.5 8.5t2.5 5.5l64 102h42l-46 -80q16 4 34 4q34 0 55.5 -19t21.5 -51q0 -46 -29 -69t-82 -23z" />
    <glyph glyph-name="egrave" unicode="&#xe8;" horiz-adv-x="566" 
d="M307 -10q-122 0 -190.5 69.5t-68.5 195.5q0 68 25 128.5t78 98.5t136 38q77 0 130 -35.5t80.5 -92.5t27.5 -124q0 -19 -12.5 -32t-33.5 -13h-339q8 -67 51 -107.5t124 -40.5q45 0 76 8.5t59 22.5q8 4 18 4q16 0 28 -11t12 -28q0 -12 -7.5 -21.5t-18.5 -15.5
q-33 -19 -71.5 -31.5t-103.5 -12.5zM140 297h295q-3 52 -26.5 84t-56.5 47t-65 15t-65 -15t-56 -47t-26 -84zM285 567q-13 0 -22 11l-69 82q-10 11 -10 25q0 17 10.5 27t26.5 10q13 0 21 -5.5t12 -13.5l51 -90q2 -2 4.5 -7.5t2.5 -11.5q0 -12 -7.5 -19.5t-19.5 -7.5z" />
    <glyph glyph-name="eacute" unicode="&#xe9;" horiz-adv-x="566" 
d="M307 -10q-122 0 -190.5 69.5t-68.5 195.5q0 68 25 128.5t78 98.5t136 38q77 0 130 -35.5t80.5 -92.5t27.5 -124q0 -19 -12.5 -32t-33.5 -13h-339q8 -67 51 -107.5t124 -40.5q45 0 76 8.5t59 22.5q8 4 18 4q16 0 28 -11t12 -28q0 -12 -7.5 -21.5t-18.5 -15.5
q-33 -19 -71.5 -31.5t-103.5 -12.5zM140 297h295q-3 52 -26.5 84t-56.5 47t-65 15t-65 -15t-56 -47t-26 -84zM285 567q-12 0 -19.5 7.5t-7.5 19.5q0 6 3 11.5t4 7.5l51 90q5 8 12.5 13.5t20.5 5.5q17 0 27 -10t10 -27q0 -14 -10 -25l-69 -82q-9 -11 -22 -11z" />
    <glyph glyph-name="ecircumflex" unicode="&#xea;" horiz-adv-x="566" 
d="M307 -10q-122 0 -190.5 69.5t-68.5 195.5q0 68 25 128.5t78 98.5t136 38q77 0 130 -35.5t80.5 -92.5t27.5 -124q0 -19 -12.5 -32t-33.5 -13h-339q8 -67 51 -107.5t124 -40.5q45 0 76 8.5t59 22.5q8 4 18 4q16 0 28 -11t12 -28q0 -12 -7.5 -21.5t-18.5 -15.5
q-33 -19 -71.5 -31.5t-103.5 -12.5zM140 297h295q-3 52 -26.5 84t-56.5 47t-65 15t-65 -15t-56 -47t-26 -84zM180 566q-13 0 -22 9.5t-8 20.5q0 11 8 19l68 70q8 8 17 14t23 6h38q14 0 23.5 -6t16.5 -14l68 -70q8 -8 8 -19q1 -11 -8 -20.5t-22 -9.5q-11 0 -18 7l-87 74
l-87 -74q-7 -7 -18 -7z" />
    <glyph glyph-name="edieresis" unicode="&#xeb;" horiz-adv-x="566" 
d="M307 -10q-122 0 -190.5 69.5t-68.5 195.5q0 68 25 128.5t78 98.5t136 38q77 0 130 -35.5t80.5 -92.5t27.5 -124q0 -19 -12.5 -32t-33.5 -13h-339q8 -67 51 -107.5t124 -40.5q45 0 76 8.5t59 22.5q8 4 18 4q16 0 28 -11t12 -28q0 -12 -7.5 -21.5t-18.5 -15.5
q-33 -19 -71.5 -31.5t-103.5 -12.5zM140 297h295q-3 52 -26.5 84t-56.5 47t-65 15t-65 -15t-56 -47t-26 -84zM369 575q-21 0 -36 15t-15 36t15 36t36 15t36 -15t15 -36t-15 -36t-36 -15zM201 575q-21 0 -36 15t-15 36t15 36t36 15t36 -15t15 -36t-15 -36t-36 -15z" />
    <glyph glyph-name="igrave" unicode="&#xec;" horiz-adv-x="249" 
d="M124 -5q-19 0 -32 13t-13 32v429q0 20 13 33t32 13q20 0 33 -13t13 -33v-429q0 -19 -13 -32t-33 -13zM125 567q-13 0 -22 11l-69 82q-10 11 -10 25q0 17 10.5 27t26.5 10q13 0 21 -5.5t12 -13.5l51 -90q2 -2 4.5 -7.5t2.5 -11.5q0 -12 -7.5 -19.5t-19.5 -7.5z" />
    <glyph glyph-name="iacute" unicode="&#xed;" horiz-adv-x="249" 
d="M124 -5q-19 0 -32 13t-13 32v429q0 20 13 33t32 13q20 0 33 -13t13 -33v-429q0 -19 -13 -32t-33 -13zM125 567q-12 0 -19.5 7.5t-7.5 19.5q0 6 3 11.5t4 7.5l51 90q5 8 12.5 13.5t20.5 5.5q17 0 27 -10t10 -27q0 -14 -10 -25l-69 -82q-9 -11 -22 -11z" />
    <glyph glyph-name="icircumflex" unicode="&#xee;" horiz-adv-x="249" 
d="M124 -5q-19 0 -32 13t-13 32v429q0 20 13 33t32 13q20 0 33 -13t13 -33v-429q0 -19 -13 -32t-33 -13zM20 566q-13 0 -22 9.5t-8 20.5q0 11 8 19l68 70q8 8 17 14t23 6h38q14 0 23.5 -6t16.5 -14l68 -70q8 -8 8 -19q1 -11 -8 -20.5t-22 -9.5q-11 0 -18 7l-87 74l-87 -74
q-7 -7 -18 -7z" />
    <glyph glyph-name="idieresis" unicode="&#xef;" horiz-adv-x="249" 
d="M124 -5q-19 0 -32 13t-13 32v429q0 20 13 33t32 13q20 0 33 -13t13 -33v-429q0 -19 -13 -32t-33 -13zM209 575q-21 0 -36 15t-15 36t15 36t36 15t36 -15t15 -36t-15 -36t-36 -15zM41 575q-21 0 -36 15t-15 36t15 36t36 15t36 -15t15 -36t-15 -36t-36 -15z" />
    <glyph glyph-name="eth" unicode="&#xf0;" horiz-adv-x="593" 
d="M296 -10q-75 0 -130.5 32.5t-86.5 90.5t-31 135q0 67 27.5 125.5t79.5 95t127 36.5q34 0 62 -8t51 -20q-22 32 -49.5 62t-57.5 55l-84 -49l-8 -4t-9 -2q-10 0 -17.5 7.5t-7.5 17.5q0 15 15 23l68 40q-19 13 -37.5 25.5t-38.5 22.5q-9 5 -14.5 15t-5.5 20q0 18 12.5 30
t29.5 12q12 0 22 -6q21 -13 49 -31.5t59 -43.5l68 41q8 5 15 5q11 0 18 -7t7 -18q0 -14 -12 -22l-56 -33q47 -42 89 -96.5t68.5 -121.5t26.5 -145q0 -77 -25 -141.5t-79.5 -103.5t-144.5 -39zM296 70q37 0 74 18t62 58t25 106q0 65 -25 104.5t-62 57t-74 17.5t-74 -17.5
t-61.5 -57t-24.5 -104.5q0 -66 24.5 -106t61.5 -58t74 -18z" />
    <glyph glyph-name="ntilde" unicode="&#xf1;" horiz-adv-x="609" 
d="M124 -5q-19 0 -32 13t-13 32v429q0 20 13 33t32 13t32.5 -13t13.5 -33v-41q32 35 75.5 63.5t110.5 28.5q57 0 97 -26.5t61 -71t21 -98.5v-284q0 -19 -13.5 -32t-32.5 -13t-32 13t-13 32v274q0 57 -25.5 89.5t-84.5 32.5q-54 0 -94 -29t-70 -67v-300q0 -19 -13.5 -32
t-32.5 -13zM167 571q-9 0 -16 6.5t-7 16.5q0 20 10 42t29 37.5t45 15.5q29 0 54 -11.5t49 -23.5t51 -12q16 0 24.5 7t12.5 20q3 8 8.5 14.5t16.5 6.5t16.5 -6.5t6.5 -15.5q0 -21 -10.5 -43t-29.5 -37t-44 -15q-30 0 -55 12t-49 24t-50 12q-15 0 -24 -9t-15 -23
q-2 -7 -7.5 -12.5t-15.5 -5.5z" />
    <glyph glyph-name="ograve" unicode="&#xf2;" horiz-adv-x="608" 
d="M304 -10q-77 0 -135 33.5t-89.5 93t-31.5 138.5t31.5 138.5t89.5 93t135 33.5t134.5 -33.5t89.5 -93t32 -138.5t-32 -138.5t-89.5 -93t-134.5 -33.5zM304 73q38 0 76 18t63.5 58.5t25.5 106.5t-25.5 106t-63.5 57.5t-76 17.5t-76.5 -17.5t-63.5 -57.5t-25 -106t25 -106.5
t63.5 -58.5t76.5 -18zM304 567q-13 0 -22 11l-69 82q-10 11 -10 25q0 17 10.5 27t26.5 10q13 0 21 -5.5t12 -13.5l51 -90q2 -2 4.5 -7.5t2.5 -11.5q0 -12 -7.5 -19.5t-19.5 -7.5z" />
    <glyph glyph-name="oacute" unicode="&#xf3;" horiz-adv-x="608" 
d="M304 -10q-77 0 -135 33.5t-89.5 93t-31.5 138.5t31.5 138.5t89.5 93t135 33.5t134.5 -33.5t89.5 -93t32 -138.5t-32 -138.5t-89.5 -93t-134.5 -33.5zM304 73q38 0 76 18t63.5 58.5t25.5 106.5t-25.5 106t-63.5 57.5t-76 17.5t-76.5 -17.5t-63.5 -57.5t-25 -106t25 -106.5
t63.5 -58.5t76.5 -18zM304 567q-12 0 -19.5 7.5t-7.5 19.5q0 6 3 11.5t4 7.5l51 90q5 8 12.5 13.5t20.5 5.5q17 0 27 -10t10 -27q0 -14 -10 -25l-69 -82q-9 -11 -22 -11z" />
    <glyph glyph-name="ocircumflex" unicode="&#xf4;" horiz-adv-x="608" 
d="M304 -10q-77 0 -135 33.5t-89.5 93t-31.5 138.5t31.5 138.5t89.5 93t135 33.5t134.5 -33.5t89.5 -93t32 -138.5t-32 -138.5t-89.5 -93t-134.5 -33.5zM304 73q38 0 76 18t63.5 58.5t25.5 106.5t-25.5 106t-63.5 57.5t-76 17.5t-76.5 -17.5t-63.5 -57.5t-25 -106t25 -106.5
t63.5 -58.5t76.5 -18zM199 566q-13 0 -22 9.5t-8 20.5q0 11 8 19l68 70q8 8 17 14t23 6h38q14 0 23.5 -6t16.5 -14l68 -70q8 -8 8 -19q1 -11 -8 -20.5t-22 -9.5q-11 0 -18 7l-87 74l-87 -74q-7 -7 -18 -7z" />
    <glyph glyph-name="otilde" unicode="&#xf5;" horiz-adv-x="608" 
d="M304 -10q-77 0 -135 33.5t-89.5 93t-31.5 138.5t31.5 138.5t89.5 93t135 33.5t134.5 -33.5t89.5 -93t32 -138.5t-32 -138.5t-89.5 -93t-134.5 -33.5zM304 73q38 0 76 18t63.5 58.5t25.5 106.5t-25.5 106t-63.5 57.5t-76 17.5t-76.5 -17.5t-63.5 -57.5t-25 -106t25 -106.5
t63.5 -58.5t76.5 -18zM166 571q-9 0 -16 6.5t-7 16.5q0 20 10 42t29 37.5t45 15.5q29 0 54 -11.5t49 -23.5t51 -12q16 0 24.5 7t12.5 20q3 8 8.5 14.5t16.5 6.5t16.5 -6.5t6.5 -15.5q0 -21 -10.5 -43t-29.5 -37t-44 -15q-30 0 -55 12t-49 24t-50 12q-15 0 -24 -9t-15 -23
q-2 -7 -7.5 -12.5t-15.5 -5.5z" />
    <glyph glyph-name="odieresis" unicode="&#xf6;" horiz-adv-x="608" 
d="M304 -10q-77 0 -135 33.5t-89.5 93t-31.5 138.5t31.5 138.5t89.5 93t135 33.5t134.5 -33.5t89.5 -93t32 -138.5t-32 -138.5t-89.5 -93t-134.5 -33.5zM304 73q38 0 76 18t63.5 58.5t25.5 106.5t-25.5 106t-63.5 57.5t-76 17.5t-76.5 -17.5t-63.5 -57.5t-25 -106t25 -106.5
t63.5 -58.5t76.5 -18zM388 575q-21 0 -36 15t-15 36t15 36t36 15t36 -15t15 -36t-15 -36t-36 -15zM220 575q-21 0 -36 15t-15 36t15 36t36 15t36 -15t15 -36t-15 -36t-36 -15z" />
    <glyph glyph-name="divide" unicode="&#xf7;" horiz-adv-x="712" 
d="M356 465q-21 0 -36 15t-15 36t15 36t36 15t36 -15t15 -36t-15 -36t-36 -15zM113 291q-17 0 -28.5 11.5t-11.5 28.5t11.5 29t28.5 12h485q17 0 29 -12t12 -29t-12 -28.5t-29 -11.5h-485zM356 95q-21 0 -36 15t-15 36t15 36t36 15t36 -15t15 -36t-15 -36t-36 -15z" />
    <glyph glyph-name="oslash" unicode="&#xf8;" horiz-adv-x="608" 
d="M120 -31q-11 0 -18 7t-7 17q0 8 6 17l29 41q-39 35 -60.5 87.5t-21.5 116.5q0 79 31.5 138.5t89.5 93t135 33.5q38 0 71 -8.5t61 -23.5l29 41q7 10 21 10q11 0 18 -7t7 -17q0 -8 -6 -17l-28 -40q40 -34 61.5 -86t21.5 -117q0 -79 -32 -138.5t-89.5 -93t-134.5 -33.5
q-75 0 -133 32l-30 -43q-7 -10 -21 -10zM182 125l204 291q-39 21 -82 21q-38 0 -76.5 -17.5t-63.5 -57.5t-25 -106q0 -44 12 -76.5t31 -54.5zM304 73q38 0 76 18t63.5 58.5t25.5 106.5q0 44 -12 75.5t-31 53.5l-204 -291q20 -11 40.5 -16t41.5 -5z" />
    <glyph glyph-name="ugrave" unicode="&#xf9;" horiz-adv-x="609" 
d="M253 -10q-57 0 -97 26.5t-61 71.5t-21 98v284q0 19 13.5 32t32.5 13t32 -13t13 -32v-274q0 -57 26 -89.5t84 -32.5q54 0 94 29.5t70 66.5v300q0 19 13.5 32t32.5 13t32 -13t13 -32v-429q0 -19 -13 -32.5t-32 -13.5t-32.5 13.5t-13.5 32.5v41q-31 -34 -75 -63t-111 -29z
M305 567q-13 0 -22 11l-69 82q-10 11 -10 25q0 17 10.5 27t26.5 10q13 0 21 -5.5t12 -13.5l51 -90q2 -2 4.5 -7.5t2.5 -11.5q0 -12 -7.5 -19.5t-19.5 -7.5z" />
    <glyph glyph-name="uacute" unicode="&#xfa;" horiz-adv-x="609" 
d="M253 -10q-57 0 -97 26.5t-61 71.5t-21 98v284q0 19 13.5 32t32.5 13t32 -13t13 -32v-274q0 -57 26 -89.5t84 -32.5q54 0 94 29.5t70 66.5v300q0 19 13.5 32t32.5 13t32 -13t13 -32v-429q0 -19 -13 -32.5t-32 -13.5t-32.5 13.5t-13.5 32.5v41q-31 -34 -75 -63t-111 -29z
M305 567q-12 0 -19.5 7.5t-7.5 19.5q0 6 3 11.5t4 7.5l51 90q5 8 12.5 13.5t20.5 5.5q17 0 27 -10t10 -27q0 -14 -10 -25l-69 -82q-9 -11 -22 -11z" />
    <glyph glyph-name="ucircumflex" unicode="&#xfb;" horiz-adv-x="609" 
d="M253 -10q-57 0 -97 26.5t-61 71.5t-21 98v284q0 19 13.5 32t32.5 13t32 -13t13 -32v-274q0 -57 26 -89.5t84 -32.5q54 0 94 29.5t70 66.5v300q0 19 13.5 32t32.5 13t32 -13t13 -32v-429q0 -19 -13 -32.5t-32 -13.5t-32.5 13.5t-13.5 32.5v41q-31 -34 -75 -63t-111 -29z
M200 566q-13 0 -22 9.5t-8 20.5q0 11 8 19l68 70q8 8 17 14t23 6h38q14 0 23.5 -6t16.5 -14l68 -70q8 -8 8 -19q1 -11 -8 -20.5t-22 -9.5q-11 0 -18 7l-87 74l-87 -74q-7 -7 -18 -7z" />
    <glyph glyph-name="udieresis" unicode="&#xfc;" horiz-adv-x="609" 
d="M253 -10q-57 0 -97 26.5t-61 71.5t-21 98v284q0 19 13.5 32t32.5 13t32 -13t13 -32v-274q0 -57 26 -89.5t84 -32.5q54 0 94 29.5t70 66.5v300q0 19 13.5 32t32.5 13t32 -13t13 -32v-429q0 -19 -13 -32.5t-32 -13.5t-32.5 13.5t-13.5 32.5v41q-31 -34 -75 -63t-111 -29z
M389 575q-21 0 -36 15t-15 36t15 36t36 15t36 -15t15 -36t-15 -36t-36 -15zM221 575q-21 0 -36 15t-15 36t15 36t36 15t36 -15t15 -36t-15 -36t-36 -15z" />
    <glyph glyph-name="yacute" unicode="&#xfd;" horiz-adv-x="537" 
d="M193 -235q-18 0 -30.5 13t-12.5 31q0 9 3 16l65 167l-188 458q-1 4 -2.5 9t-1.5 10q0 19 13 32.5t32 13.5q14 0 25.5 -8t16.5 -20l154 -382l157 380q6 14 16.5 22t25.5 8q19 0 32 -13.5t13 -32.5q0 -9 -3 -17l-273 -656q-6 -13 -16 -22t-26 -9zM269 567q-12 0 -19.5 7.5
t-7.5 19.5q0 6 3 11.5t4 7.5l51 90q5 8 12.5 13.5t20.5 5.5q17 0 27 -10t10 -27q0 -14 -10 -25l-69 -82q-9 -11 -22 -11z" />
    <glyph glyph-name="thorn" unicode="&#xfe;" horiz-adv-x="631" 
d="M124 -235q-19 0 -32 13.5t-13 32.5v878q0 20 13 33t32 13q20 0 33 -13t13 -33v-245q35 36 77 56t94 20q61 0 116 -31t90.5 -90t35.5 -144t-35.5 -144t-90.5 -90t-116 -31q-52 0 -94 20t-77 56v-255q0 -19 -13 -32.5t-33 -13.5zM328 75q71 0 117.5 46t46.5 134
q0 89 -46.5 134.5t-117.5 45.5q-49 0 -89 -21.5t-69 -53.5v-210q29 -32 69 -53.5t89 -21.5z" />
    <glyph glyph-name="ydieresis" unicode="&#xff;" horiz-adv-x="537" 
d="M193 -235q-18 0 -30.5 13t-12.5 31q0 9 3 16l65 167l-188 458q-1 4 -2.5 9t-1.5 10q0 19 13 32.5t32 13.5q14 0 25.5 -8t16.5 -20l154 -382l157 380q6 14 16.5 22t25.5 8q19 0 32 -13.5t13 -32.5q0 -9 -3 -17l-273 -656q-6 -13 -16 -22t-26 -9zM353 575q-21 0 -36 15
t-15 36t15 36t36 15t36 -15t15 -36t-15 -36t-36 -15zM185 575q-21 0 -36 15t-15 36t15 36t36 15t36 -15t15 -36t-15 -36t-36 -15z" />
    <glyph glyph-name="Amacron" unicode="&#x100;" horiz-adv-x="746" 
d="M95 -5q-21 0 -33 13t-12 32q0 8 5 20l255 602q7 16 21.5 28.5t36.5 12.5h10q23 0 37 -12.5t21 -28.5l255 -602q5 -12 5 -20q0 -19 -12 -32t-33 -13q-31 0 -43 28l-65 156h-340l-65 -156q-12 -28 -43 -28zM238 262h270l-135 325zM256 760q-13 0 -21.5 8.5t-8.5 21.5
t8.5 21.5t21.5 8.5h234q13 0 21.5 -8.5t8.5 -21.5t-8.5 -21.5t-21.5 -8.5h-234z" />
    <glyph glyph-name="amacron" unicode="&#x101;" horiz-adv-x="562" 
d="M209 -10q-43 0 -80.5 18t-60 51.5t-22.5 80.5q0 71 56.5 116.5t173.5 45.5h121v8q0 67 -33 95.5t-101 28.5q-42 0 -73.5 -7.5t-59.5 -16.5q-8 -2 -13 -2q-15 0 -26 11t-11 27q0 27 26 38q35 15 77.5 25.5t95.5 10.5q73 0 119 -29t68 -74t22 -94v-283q0 -19 -13.5 -32
t-32.5 -13t-32 13t-13 32v26q-27 -28 -72 -52t-116 -24zM243 70q47 0 88 23t66 52v84h-109q-70 0 -110.5 -18t-40.5 -61q0 -32 22.5 -56t83.5 -24zM162 588q-13 0 -21.5 8.5t-8.5 21.5t8.5 21.5t21.5 8.5h234q13 0 21.5 -8.5t8.5 -21.5t-8.5 -21.5t-21.5 -8.5h-234z" />
    <glyph glyph-name="Abreve" unicode="&#x102;" horiz-adv-x="746" 
d="M95 -5q-21 0 -33 13t-12 32q0 8 5 20l255 602q7 16 21.5 28.5t36.5 12.5h10q23 0 37 -12.5t21 -28.5l255 -602q5 -12 5 -20q0 -19 -12 -32t-33 -13q-31 0 -43 28l-65 156h-340l-65 -156q-12 -28 -43 -28zM238 262h270l-135 325zM373 748q-48 0 -84.5 22t-55.5 59
q-3 6 -3 14q0 13 8.5 22t22.5 9q19 0 28 -19q11 -22 33 -35.5t51 -13.5t51.5 13.5t32.5 35.5q9 19 28 19q14 0 22.5 -9t8.5 -22q0 -8 -3 -14q-19 -37 -55.5 -59t-84.5 -22z" />
    <glyph glyph-name="abreve" unicode="&#x103;" horiz-adv-x="562" 
d="M209 -10q-43 0 -80.5 18t-60 51.5t-22.5 80.5q0 71 56.5 116.5t173.5 45.5h121v8q0 67 -33 95.5t-101 28.5q-42 0 -73.5 -7.5t-59.5 -16.5q-8 -2 -13 -2q-15 0 -26 11t-11 27q0 27 26 38q35 15 77.5 25.5t95.5 10.5q73 0 119 -29t68 -74t22 -94v-283q0 -19 -13.5 -32
t-32.5 -13t-32 13t-13 32v26q-27 -28 -72 -52t-116 -24zM243 70q47 0 88 23t66 52v84h-109q-70 0 -110.5 -18t-40.5 -61q0 -32 22.5 -56t83.5 -24zM279 576q-48 0 -85.5 22t-54.5 59q-3 6 -3 14q0 13 8.5 22t22.5 9q19 0 28 -19q11 -22 33 -35.5t51 -13.5t51.5 13.5
t32.5 35.5q9 19 28 19q14 0 22.5 -9t8.5 -22q0 -8 -3 -14q-17 -37 -54.5 -59t-85.5 -22z" />
    <glyph glyph-name="Aogonek" unicode="&#x104;" horiz-adv-x="746" 
d="M593 -203q-36 0 -64.5 22t-28.5 62q0 35 25 71t86 64l-68 163h-340l-65 -156q-12 -28 -43 -28q-21 0 -33 13t-12 32q0 8 5 20l255 602q7 16 21.5 28.5t36.5 12.5h10q23 0 37 -12.5t21 -28.5l255 -602q5 -12 5 -20q0 -29 -25 -41q-19 -8 -42.5 -22.5t-39.5 -33.5t-16 -43
q1 -22 12.5 -34.5t38.5 -12.5q11 0 19.5 2t15.5 4q6 2 9 2q22 0 22 -22q0 -10 -11 -18q-16 -11 -37 -17.5t-49 -6.5zM238 262h270l-135 325z" />
    <glyph glyph-name="aogonek" unicode="&#x105;" horiz-adv-x="554" 
d="M375 -203q-36 0 -64.5 22t-28.5 62q0 46 32 79t75 55v51q-27 -28 -72 -52t-116 -24q-43 0 -80.5 18t-60 51.5t-22.5 80.5q0 71 56.5 116.5t173.5 45.5h121v8q0 67 -33 95.5t-101 28.5q-42 0 -73.5 -7.5t-59.5 -16.5q-8 -2 -13 -2q-15 0 -26 11t-11 27q0 27 26 38
q35 15 77.5 25.5t95.5 10.5q73 0 119 -29t68 -74t22 -94v-283q0 -31 -34 -44q-44 -17 -67.5 -43.5t-23.5 -52.5q0 -22 12 -34.5t39 -12.5q11 0 19.5 2t15.5 4q6 2 9 2q22 0 22 -22q0 -10 -11 -18q-16 -11 -37 -17.5t-49 -6.5zM235 70q47 0 88 23t66 52v84h-109
q-70 0 -110.5 -18t-40.5 -61q0 -32 22.5 -56t83.5 -24z" />
    <glyph glyph-name="Cacute" unicode="&#x106;" horiz-adv-x="695" 
d="M405 -10q-99 0 -178.5 43.5t-125.5 124t-46 191.5q0 112 46 192t125.5 123.5t178.5 43.5q74 0 128 -18t100 -44q10 -5 15.5 -13.5t6.5 -22.5q1 -16 -10 -28t-30 -12q-10 0 -18 4q-40 21 -82 34t-101 13q-88 0 -148 -36t-90 -97.5t-30 -138.5t30 -138.5t90 -97.5t148 -36
q59 0 101 13t82 34q8 4 18 4q19 0 30 -12t10 -28q-1 -14 -6.5 -22.5t-15.5 -13.5q-46 -26 -100 -44t-128 -18zM395 739q-12 0 -19.5 7.5t-7.5 19.5q0 6 3 11.5t4 7.5l51 90q5 8 12.5 13.5t20.5 5.5q17 0 27 -10t10 -27q0 -14 -10 -25l-69 -82q-9 -11 -22 -11z" />
    <glyph glyph-name="cacute" unicode="&#x107;" horiz-adv-x="533" 
d="M315 -10q-71 0 -132 31.5t-98 91t-37 142.5q0 84 37 143t98 90.5t132 31.5q59 0 98.5 -15.5t64.5 -32.5q20 -13 20 -35q0 -14 -11 -27t-27 -13q-11 0 -22 6q-26 14 -51 23t-64 9q-87 0 -135.5 -50t-48.5 -130t48.5 -130t135.5 -50q39 0 64 9.5t51 22.5q11 6 22 6
q16 0 27 -13t11 -27q0 -22 -20 -35q-25 -16 -64.5 -32t-98.5 -16zM298 567q-12 0 -19.5 7.5t-7.5 19.5q0 6 3 11.5t4 7.5l51 90q5 8 12.5 13.5t20.5 5.5q17 0 27 -10t10 -27q0 -14 -10 -25l-69 -82q-9 -11 -22 -11z" />
    <glyph glyph-name="Ccircumflex" unicode="&#x108;" horiz-adv-x="695" 
d="M405 -10q-99 0 -178.5 43.5t-125.5 124t-46 191.5q0 112 46 192t125.5 123.5t178.5 43.5q74 0 128 -18t100 -44q10 -5 15.5 -13.5t6.5 -22.5q1 -16 -10 -28t-30 -12q-10 0 -18 4q-40 21 -82 34t-101 13q-88 0 -148 -36t-90 -97.5t-30 -138.5t30 -138.5t90 -97.5t148 -36
q59 0 101 13t82 34q8 4 18 4q19 0 30 -12t10 -28q-1 -14 -6.5 -22.5t-15.5 -13.5q-46 -26 -100 -44t-128 -18zM290 738q-13 0 -22 9.5t-8 20.5q0 11 8 19l68 70q8 8 17 14t23 6h38q14 0 23.5 -6t16.5 -14l68 -70q8 -8 8 -19q1 -11 -8 -20.5t-22 -9.5q-11 0 -18 7l-87 74
l-87 -74q-7 -7 -18 -7z" />
    <glyph glyph-name="ccircumflex" unicode="&#x109;" horiz-adv-x="533" 
d="M315 -10q-71 0 -132 31.5t-98 91t-37 142.5q0 84 37 143t98 90.5t132 31.5q59 0 98.5 -15.5t64.5 -32.5q20 -13 20 -35q0 -14 -11 -27t-27 -13q-11 0 -22 6q-26 14 -51 23t-64 9q-87 0 -135.5 -50t-48.5 -130t48.5 -130t135.5 -50q39 0 64 9.5t51 22.5q11 6 22 6
q16 0 27 -13t11 -27q0 -22 -20 -35q-25 -16 -64.5 -32t-98.5 -16zM193 566q-13 0 -22 9.5t-8 20.5q0 11 8 19l68 70q8 8 17 14t23 6h38q14 0 23.5 -6t16.5 -14l68 -70q8 -8 8 -19q1 -11 -8 -20.5t-22 -9.5q-11 0 -18 7l-87 74l-87 -74q-7 -7 -18 -7z" />
    <glyph glyph-name="Cdotaccent" unicode="&#x10a;" horiz-adv-x="695" 
d="M405 -10q-99 0 -178.5 43.5t-125.5 124t-46 191.5q0 112 46 192t125.5 123.5t178.5 43.5q74 0 128 -18t100 -44q10 -5 15.5 -13.5t6.5 -22.5q1 -16 -10 -28t-30 -12q-10 0 -18 4q-40 21 -82 34t-101 13q-88 0 -148 -36t-90 -97.5t-30 -138.5t30 -138.5t90 -97.5t148 -36
q59 0 101 13t82 34q8 4 18 4q19 0 30 -12t10 -28q-1 -14 -6.5 -22.5t-15.5 -13.5q-46 -26 -100 -44t-128 -18zM395 747q-21 0 -36 15t-15 36t15 36t36 15t36 -15t15 -36t-15 -36t-36 -15z" />
    <glyph glyph-name="cdotaccent" unicode="&#x10b;" horiz-adv-x="533" 
d="M315 -10q-71 0 -132 31.5t-98 91t-37 142.5q0 84 37 143t98 90.5t132 31.5q59 0 98.5 -15.5t64.5 -32.5q20 -13 20 -35q0 -14 -11 -27t-27 -13q-11 0 -22 6q-26 14 -51 23t-64 9q-87 0 -135.5 -50t-48.5 -130t48.5 -130t135.5 -50q39 0 64 9.5t51 22.5q11 6 22 6
q16 0 27 -13t11 -27q0 -22 -20 -35q-25 -16 -64.5 -32t-98.5 -16zM298 575q-21 0 -36 15t-15 36t15 36t36 15t36 -15t15 -36t-15 -36t-36 -15z" />
    <glyph glyph-name="Ccaron" unicode="&#x10c;" horiz-adv-x="695" 
d="M405 -10q-99 0 -178.5 43.5t-125.5 124t-46 191.5q0 112 46 192t125.5 123.5t178.5 43.5q74 0 128 -18t100 -44q10 -5 15.5 -13.5t6.5 -22.5q1 -16 -10 -28t-30 -12q-10 0 -18 4q-40 21 -82 34t-101 13q-88 0 -148 -36t-90 -97.5t-30 -138.5t30 -138.5t90 -97.5t148 -36
q59 0 101 13t82 34q8 4 18 4q19 0 30 -12t10 -28q-1 -14 -6.5 -22.5t-15.5 -13.5q-46 -26 -100 -44t-128 -18zM376 739q-14 0 -23 6t-17 14l-68 70q-8 8 -8 19q-1 11 8 20.5t22 9.5q11 0 18 -7l87 -74l87 74q7 7 18 7q13 0 22 -9.5t8 -20.5q0 -11 -8 -19l-68 -70
q-7 -8 -16.5 -14t-23.5 -6h-38z" />
    <glyph glyph-name="ccaron" unicode="&#x10d;" horiz-adv-x="533" 
d="M315 -10q-71 0 -132 31.5t-98 91t-37 142.5q0 84 37 143t98 90.5t132 31.5q59 0 98.5 -15.5t64.5 -32.5q20 -13 20 -35q0 -14 -11 -27t-27 -13q-11 0 -22 6q-26 14 -51 23t-64 9q-87 0 -135.5 -50t-48.5 -130t48.5 -130t135.5 -50q39 0 64 9.5t51 22.5q11 6 22 6
q16 0 27 -13t11 -27q0 -22 -20 -35q-25 -16 -64.5 -32t-98.5 -16zM279 567q-14 0 -23 6t-17 14l-68 70q-8 8 -8 19q-1 11 8 20.5t22 9.5q11 0 18 -7l87 -74l87 74q7 7 18 7q13 0 22 -9.5t8 -20.5q0 -11 -8 -19l-68 -70q-7 -8 -16.5 -14t-23.5 -6h-38z" />
    <glyph glyph-name="Dcaron" unicode="&#x10e;" horiz-adv-x="751" 
d="M142 0q-19 0 -32 13t-13 32v607q0 19 13 32.5t32 13.5h201q90 0 156 -30.5t110 -81t65.5 -112.5t21.5 -125t-21.5 -125t-65.5 -112.5t-110 -81t-156 -30.5h-201zM188 85h144q84 0 145.5 33.5t95 93t33.5 137.5t-33.5 137.5t-95 93t-145.5 33.5h-144v-528zM356 739
q-14 0 -23 6t-17 14l-68 70q-8 8 -8 19q-1 11 8 20.5t22 9.5q11 0 18 -7l87 -74l87 74q7 7 18 7q13 0 22 -9.5t8 -20.5q0 -11 -8 -19l-68 -70q-7 -8 -16.5 -14t-23.5 -6h-38z" />
    <glyph glyph-name="dcaron" unicode="&#x10f;" horiz-adv-x="631" 
d="M290 -10q-60 0 -115.5 31t-91 90t-35.5 144t35.5 144t91 90t115.5 31q53 0 95 -20t76 -56v245q0 20 13.5 33t32.5 13t32 -13t13 -33v-649q0 -19 -13 -32t-32 -13t-32.5 13t-13.5 32v26q-34 -36 -76 -56t-95 -20zM303 75q49 0 89 21.5t69 53.5v210q-29 32 -69 53.5
t-89 21.5q-71 0 -117.5 -45.5t-46.5 -134.5q0 -88 46.5 -134t117.5 -46zM601 554q-7 0 -13 6t-6 16q0 7 4 11t9 8q11 8 22 19t11 29q-20 0 -33 12.5t-13 31.5q0 20 13.5 34t33.5 14q21 0 33.5 -14.5t12.5 -34.5v-31q0 -32 -15 -53.5t-43 -41.5q-6 -6 -16 -6z" />
    <glyph glyph-name="Dcroat" unicode="&#x110;" horiz-adv-x="756" 
d="M147 0q-19 0 -32 13t-13 32v270h-54q-14 0 -23.5 9.5t-9.5 23.5t9.5 24t23.5 10h54v270q0 19 13 32.5t32 13.5h201q90 0 156 -30.5t110 -81t65.5 -112.5t21.5 -125t-21.5 -125t-65.5 -112.5t-110 -81t-156 -30.5h-201zM193 85h144q84 0 145.5 33.5t95 93t33.5 137.5
t-33.5 137.5t-95 93t-145.5 33.5h-144v-231h117q14 0 24 -10t10 -24t-10 -23.5t-24 -9.5h-117v-230z" />
    <glyph glyph-name="dcroat" unicode="&#x111;" horiz-adv-x="636" 
d="M290 -10q-60 0 -115.5 31t-91 90t-35.5 144t35.5 144t91 90t115.5 31q53 0 95 -20t76 -56v129h-116q-14 0 -24 9.5t-10 23.5t10 24t24 10h116v49q0 20 13.5 33t32.5 13t32 -13t13 -33v-49h47q14 0 23.5 -10t9.5 -24t-9.5 -23.5t-23.5 -9.5h-47v-533q0 -19 -13 -32
t-32 -13t-32.5 13t-13.5 32v26q-34 -36 -76 -56t-95 -20zM303 75q49 0 89 21.5t69 53.5v210q-29 32 -69 53.5t-89 21.5q-71 0 -117.5 -45.5t-46.5 -134.5q0 -88 46.5 -134t117.5 -46z" />
    <glyph glyph-name="Emacron" unicode="&#x112;" horiz-adv-x="638" 
d="M142 0q-19 0 -32 13t-13 32v607q0 19 13 32.5t32 13.5h401q18 0 30.5 -12.5t12.5 -30.5t-12.5 -30t-30.5 -12h-355v-221h319q18 0 30.5 -12.5t12.5 -30.5t-12.5 -30t-30.5 -12h-319v-222h355q18 0 30.5 -12.5t12.5 -30.5t-12.5 -30t-30.5 -12h-401zM225 760
q-13 0 -21.5 8.5t-8.5 21.5t8.5 21.5t21.5 8.5h234q13 0 21.5 -8.5t8.5 -21.5t-8.5 -21.5t-21.5 -8.5h-234z" />
    <glyph glyph-name="emacron" unicode="&#x113;" horiz-adv-x="566" 
d="M307 -10q-122 0 -190.5 69.5t-68.5 195.5q0 68 25 128.5t78 98.5t136 38q77 0 130 -35.5t80.5 -92.5t27.5 -124q0 -19 -12.5 -32t-33.5 -13h-339q8 -67 51 -107.5t124 -40.5q45 0 76 8.5t59 22.5q8 4 18 4q16 0 28 -11t12 -28q0 -12 -7.5 -21.5t-18.5 -15.5
q-33 -19 -71.5 -31.5t-103.5 -12.5zM140 297h295q-3 52 -26.5 84t-56.5 47t-65 15t-65 -15t-56 -47t-26 -84zM168 588q-13 0 -21.5 8.5t-8.5 21.5t8.5 21.5t21.5 8.5h234q13 0 21.5 -8.5t8.5 -21.5t-8.5 -21.5t-21.5 -8.5h-234z" />
    <glyph glyph-name="Ebreve" unicode="&#x114;" horiz-adv-x="638" 
d="M142 0q-19 0 -32 13t-13 32v607q0 19 13 32.5t32 13.5h401q18 0 30.5 -12.5t12.5 -30.5t-12.5 -30t-30.5 -12h-355v-221h319q18 0 30.5 -12.5t12.5 -30.5t-12.5 -30t-30.5 -12h-319v-222h355q18 0 30.5 -12.5t12.5 -30.5t-12.5 -30t-30.5 -12h-401zM342 748
q-48 0 -84.5 22t-55.5 59q-3 6 -3 14q0 13 8.5 22t22.5 9q19 0 28 -19q11 -22 33 -35.5t51 -13.5t51.5 13.5t32.5 35.5q9 19 28 19q14 0 22.5 -9t8.5 -22q0 -8 -3 -14q-19 -37 -55.5 -59t-84.5 -22z" />
    <glyph glyph-name="ebreve" unicode="&#x115;" horiz-adv-x="566" 
d="M307 -10q-122 0 -190.5 69.5t-68.5 195.5q0 68 25 128.5t78 98.5t136 38q77 0 130 -35.5t80.5 -92.5t27.5 -124q0 -19 -12.5 -32t-33.5 -13h-339q8 -67 51 -107.5t124 -40.5q45 0 76 8.5t59 22.5q8 4 18 4q16 0 28 -11t12 -28q0 -12 -7.5 -21.5t-18.5 -15.5
q-33 -19 -71.5 -31.5t-103.5 -12.5zM140 297h295q-3 52 -26.5 84t-56.5 47t-65 15t-65 -15t-56 -47t-26 -84zM285 576q-48 0 -85.5 22t-54.5 59q-3 6 -3 14q0 13 8.5 22t22.5 9q19 0 28 -19q11 -22 33 -35.5t51 -13.5t51.5 13.5t32.5 35.5q9 19 28 19q14 0 22.5 -9t8.5 -22
q0 -8 -3 -14q-17 -37 -54.5 -59t-85.5 -22z" />
    <glyph glyph-name="Edotaccent" unicode="&#x116;" horiz-adv-x="638" 
d="M142 0q-19 0 -32 13t-13 32v607q0 19 13 32.5t32 13.5h401q18 0 30.5 -12.5t12.5 -30.5t-12.5 -30t-30.5 -12h-355v-221h319q18 0 30.5 -12.5t12.5 -30.5t-12.5 -30t-30.5 -12h-319v-222h355q18 0 30.5 -12.5t12.5 -30.5t-12.5 -30t-30.5 -12h-401zM342 747q-21 0 -36 15
t-15 36t15 36t36 15t36 -15t15 -36t-15 -36t-36 -15z" />
    <glyph glyph-name="edotaccent" unicode="&#x117;" horiz-adv-x="566" 
d="M307 -10q-122 0 -190.5 69.5t-68.5 195.5q0 68 25 128.5t78 98.5t136 38q77 0 130 -35.5t80.5 -92.5t27.5 -124q0 -19 -12.5 -32t-33.5 -13h-339q8 -67 51 -107.5t124 -40.5q45 0 76 8.5t59 22.5q8 4 18 4q16 0 28 -11t12 -28q0 -12 -7.5 -21.5t-18.5 -15.5
q-33 -19 -71.5 -31.5t-103.5 -12.5zM140 297h295q-3 52 -26.5 84t-56.5 47t-65 15t-65 -15t-56 -47t-26 -84zM285 575q-21 0 -36 15t-15 36t15 36t36 15t36 -15t15 -36t-15 -36t-36 -15z" />
    <glyph glyph-name="Eogonek" unicode="&#x118;" horiz-adv-x="638" 
d="M479 -203q-36 0 -64.5 22t-28.5 62q0 42 25.5 71t59.5 48h-329q-19 0 -32 13t-13 32v607q0 19 13 32.5t32 13.5h401q18 0 30.5 -12.5t12.5 -30.5t-12.5 -30t-30.5 -12h-355v-221h319q18 0 30.5 -12.5t12.5 -30.5t-12.5 -30t-30.5 -12h-319v-222h355q18 0 30.5 -12.5
t12.5 -30.5q0 -28 -28 -40q-17 -7 -40.5 -21.5t-41 -35t-17.5 -45.5q1 -22 12.5 -34.5t38.5 -12.5q11 0 19.5 2t15.5 4q6 2 9 2q22 0 22 -22q0 -10 -11 -18q-16 -11 -37 -17.5t-49 -6.5z" />
    <glyph glyph-name="eogonek" unicode="&#x119;" horiz-adv-x="566" 
d="M375 -203q-36 0 -64.5 22t-28.5 62q0 38 20.5 64t48.5 45h-44q-122 0 -190.5 69.5t-68.5 195.5q0 68 25 128.5t78 98.5t136 38q77 0 130 -35.5t80.5 -92.5t27.5 -124q0 -19 -12.5 -32t-33.5 -13h-339q8 -67 51 -107.5t124 -40.5q45 0 76 8.5t59 22.5q8 4 18 4
q16 0 28 -11t12 -28q0 -12 -9.5 -22.5t-20.5 -17.5q-51 -33 -87 -64.5t-36 -66.5q0 -22 12 -34.5t39 -12.5q11 0 19.5 2t15.5 4q6 2 9 2q22 0 22 -22q0 -10 -11 -18q-16 -11 -37 -17.5t-49 -6.5zM140 297h295q-3 52 -26.5 84t-56.5 47t-65 15t-65 -15t-56 -47t-26 -84z" />
    <glyph glyph-name="Ecaron" unicode="&#x11a;" horiz-adv-x="638" 
d="M142 0q-19 0 -32 13t-13 32v607q0 19 13 32.5t32 13.5h401q18 0 30.5 -12.5t12.5 -30.5t-12.5 -30t-30.5 -12h-355v-221h319q18 0 30.5 -12.5t12.5 -30.5t-12.5 -30t-30.5 -12h-319v-222h355q18 0 30.5 -12.5t12.5 -30.5t-12.5 -30t-30.5 -12h-401zM323 739q-14 0 -23 6
t-17 14l-68 70q-8 8 -8 19q-1 11 8 20.5t22 9.5q11 0 18 -7l87 -74l87 74q7 7 18 7q13 0 22 -9.5t8 -20.5q0 -11 -8 -19l-68 -70q-7 -8 -16.5 -14t-23.5 -6h-38z" />
    <glyph glyph-name="ecaron" unicode="&#x11b;" horiz-adv-x="566" 
d="M307 -10q-122 0 -190.5 69.5t-68.5 195.5q0 68 25 128.5t78 98.5t136 38q77 0 130 -35.5t80.5 -92.5t27.5 -124q0 -19 -12.5 -32t-33.5 -13h-339q8 -67 51 -107.5t124 -40.5q45 0 76 8.5t59 22.5q8 4 18 4q16 0 28 -11t12 -28q0 -12 -7.5 -21.5t-18.5 -15.5
q-33 -19 -71.5 -31.5t-103.5 -12.5zM140 297h295q-3 52 -26.5 84t-56.5 47t-65 15t-65 -15t-56 -47t-26 -84zM266 567q-14 0 -23 6t-17 14l-68 70q-8 8 -8 19q-1 11 8 20.5t22 9.5q11 0 18 -7l87 -74l87 74q7 7 18 7q13 0 22 -9.5t8 -20.5q0 -11 -8 -19l-68 -70
q-7 -8 -16.5 -14t-23.5 -6h-38z" />
    <glyph glyph-name="Gcircumflex" unicode="&#x11c;" horiz-adv-x="757" 
d="M406 -10q-105 0 -184 46t-123 126.5t-44 185.5q0 81 27 147.5t74.5 114t110.5 73t136 25.5q85 0 143.5 -21t105.5 -51q7 -4 13.5 -13t6.5 -23q0 -16 -11 -28.5t-31 -12.5q-11 0 -21 5q-44 26 -91 41t-105 15q-75 0 -135.5 -31.5t-96 -92t-35.5 -148.5q0 -77 32 -138.5
t93 -97.5t147 -36q53 0 97 12.5t78 31.5v181h-165q-17 0 -29 12t-12 29t12 29t29 12h197q20 0 34 -14t14 -34v-227q0 -21 -10.5 -37.5t-27.5 -24.5q-49 -25 -106.5 -40.5t-122.5 -15.5zM301 738q-13 0 -22 9.5t-8 20.5q0 11 8 19l68 70q8 8 17 14t23 6h38q14 0 23.5 -6
t16.5 -14l68 -70q8 -8 8 -19q1 -11 -8 -20.5t-22 -9.5q-11 0 -18 7l-87 74l-87 -74q-7 -7 -18 -7z" />
    <glyph glyph-name="gcircumflex" unicode="&#x11d;" horiz-adv-x="631" 
d="M317 -240q-61 0 -120 16t-94 36q-7 5 -12.5 13t-5.5 22q0 15 11.5 28t28.5 13q5 0 9.5 -1t8.5 -3q32 -16 73 -27t92 -11q153 0 153 163v67q-31 -33 -73 -54.5t-98 -21.5q-42 0 -84.5 16t-78 48t-57.5 81t-22 115t22 115t57.5 81t78 48t84.5 16q56 0 98 -21.5t73 -54.5v25
q0 19 13 32.5t32 13.5t32.5 -13.5t13.5 -32.5v-447q0 -126 -61 -194t-174 -68zM309 83q52 0 88 23t64 51v206q-28 29 -64 51.5t-88 22.5q-47 0 -86 -19t-61.5 -58.5t-22.5 -99.5t22.5 -99.5t61.5 -58.5t86 -19zM211 566q-13 0 -22 9.5t-8 20.5q0 11 8 19l68 70q8 8 17 14
t23 6h38q14 0 23.5 -6t16.5 -14l68 -70q8 -8 8 -19q1 -11 -8 -20.5t-22 -9.5q-11 0 -18 7l-87 74l-87 -74q-7 -7 -18 -7z" />
    <glyph glyph-name="Gbreve" unicode="&#x11e;" horiz-adv-x="757" 
d="M406 -10q-105 0 -184 46t-123 126.5t-44 185.5q0 81 27 147.5t74.5 114t110.5 73t136 25.5q85 0 143.5 -21t105.5 -51q7 -4 13.5 -13t6.5 -23q0 -16 -11 -28.5t-31 -12.5q-11 0 -21 5q-44 26 -91 41t-105 15q-75 0 -135.5 -31.5t-96 -92t-35.5 -148.5q0 -77 32 -138.5
t93 -97.5t147 -36q53 0 97 12.5t78 31.5v181h-165q-17 0 -29 12t-12 29t12 29t29 12h197q20 0 34 -14t14 -34v-227q0 -21 -10.5 -37.5t-27.5 -24.5q-49 -25 -106.5 -40.5t-122.5 -15.5zM406 748q-48 0 -84.5 22t-55.5 59q-3 6 -3 14q0 13 8.5 22t22.5 9q19 0 28 -19
q11 -22 33 -35.5t51 -13.5t51.5 13.5t32.5 35.5q9 19 28 19q14 0 22.5 -9t8.5 -22q0 -8 -3 -14q-19 -37 -55.5 -59t-84.5 -22z" />
    <glyph glyph-name="gbreve" unicode="&#x11f;" horiz-adv-x="631" 
d="M317 -240q-61 0 -120 16t-94 36q-7 5 -12.5 13t-5.5 22q0 15 11.5 28t28.5 13q5 0 9.5 -1t8.5 -3q32 -16 73 -27t92 -11q153 0 153 163v67q-31 -33 -73 -54.5t-98 -21.5q-42 0 -84.5 16t-78 48t-57.5 81t-22 115t22 115t57.5 81t78 48t84.5 16q56 0 98 -21.5t73 -54.5v25
q0 19 13 32.5t32 13.5t32.5 -13.5t13.5 -32.5v-447q0 -126 -61 -194t-174 -68zM309 83q52 0 88 23t64 51v206q-28 29 -64 51.5t-88 22.5q-47 0 -86 -19t-61.5 -58.5t-22.5 -99.5t22.5 -99.5t61.5 -58.5t86 -19zM316 576q-48 0 -85.5 22t-54.5 59q-3 6 -3 14q0 13 8.5 22
t22.5 9q19 0 28 -19q11 -22 33 -35.5t51 -13.5t51.5 13.5t32.5 35.5q9 19 28 19q14 0 22.5 -9t8.5 -22q0 -8 -3 -14q-17 -37 -54.5 -59t-85.5 -22z" />
    <glyph glyph-name="Gdotaccent" unicode="&#x120;" horiz-adv-x="757" 
d="M406 -10q-105 0 -184 46t-123 126.5t-44 185.5q0 81 27 147.5t74.5 114t110.5 73t136 25.5q85 0 143.5 -21t105.5 -51q7 -4 13.5 -13t6.5 -23q0 -16 -11 -28.5t-31 -12.5q-11 0 -21 5q-44 26 -91 41t-105 15q-75 0 -135.5 -31.5t-96 -92t-35.5 -148.5q0 -77 32 -138.5
t93 -97.5t147 -36q53 0 97 12.5t78 31.5v181h-165q-17 0 -29 12t-12 29t12 29t29 12h197q20 0 34 -14t14 -34v-227q0 -21 -10.5 -37.5t-27.5 -24.5q-49 -25 -106.5 -40.5t-122.5 -15.5zM406 747q-21 0 -36 15t-15 36t15 36t36 15t36 -15t15 -36t-15 -36t-36 -15z" />
    <glyph glyph-name="gdotaccent" unicode="&#x121;" horiz-adv-x="631" 
d="M317 -240q-61 0 -120 16t-94 36q-7 5 -12.5 13t-5.5 22q0 15 11.5 28t28.5 13q5 0 9.5 -1t8.5 -3q32 -16 73 -27t92 -11q153 0 153 163v67q-31 -33 -73 -54.5t-98 -21.5q-42 0 -84.5 16t-78 48t-57.5 81t-22 115t22 115t57.5 81t78 48t84.5 16q56 0 98 -21.5t73 -54.5v25
q0 19 13 32.5t32 13.5t32.5 -13.5t13.5 -32.5v-447q0 -126 -61 -194t-174 -68zM309 83q52 0 88 23t64 51v206q-28 29 -64 51.5t-88 22.5q-47 0 -86 -19t-61.5 -58.5t-22.5 -99.5t22.5 -99.5t61.5 -58.5t86 -19zM316 575q-21 0 -36 15t-15 36t15 36t36 15t36 -15t15 -36
t-15 -36t-36 -15z" />
    <glyph glyph-name="uni0122" unicode="&#x122;" horiz-adv-x="757" 
d="M406 -10q-105 0 -184 46t-123 126.5t-44 185.5q0 81 27 147.5t74.5 114t110.5 73t136 25.5q85 0 143.5 -21t105.5 -51q7 -4 13.5 -13t6.5 -23q0 -16 -11 -28.5t-31 -12.5q-11 0 -21 5q-44 26 -91 41t-105 15q-75 0 -135.5 -31.5t-96 -92t-35.5 -148.5q0 -77 32 -138.5
t93 -97.5t147 -36q53 0 97 12.5t78 31.5v181h-165q-17 0 -29 12t-12 29t12 29t29 12h197q20 0 34 -14t14 -34v-227q0 -21 -10.5 -37.5t-27.5 -24.5q-49 -25 -106.5 -40.5t-122.5 -15.5zM376 -263q-9 0 -15.5 6.5t-6.5 16.5q0 14 12 21q19 11 31 24t12 32q-22 0 -35.5 13.5
t-13.5 34.5t14.5 36t35.5 15q23 0 36.5 -15t13.5 -38v-33q0 -43 -21.5 -68t-46.5 -40q-8 -5 -16 -5z" />
    <glyph glyph-name="uni0123" unicode="&#x123;" horiz-adv-x="631" 
d="M317 -240q-61 0 -120 16t-94 36q-7 5 -12.5 13t-5.5 22q0 15 11.5 28t28.5 13q5 0 9.5 -1t8.5 -3q32 -16 73 -27t92 -11q153 0 153 163v67q-31 -33 -73 -54.5t-98 -21.5q-42 0 -84.5 16t-78 48t-57.5 81t-22 115t22 115t57.5 81t78 48t84.5 16q56 0 98 -21.5t73 -54.5v25
q0 19 13 32.5t32 13.5t32.5 -13.5t13.5 -32.5v-447q0 -126 -61 -194t-174 -68zM309 83q52 0 88 23t64 51v206q-28 29 -64 51.5t-88 22.5q-47 0 -86 -19t-61.5 -58.5t-22.5 -99.5t22.5 -99.5t61.5 -58.5t86 -19zM314 575q-22 0 -36 15.5t-14 37.5v33q0 43 21.5 68t46.5 40
q8 5 16 5q9 0 15.5 -6.5t6.5 -16.5q0 -13 -12 -21q-19 -11 -31 -23.5t-12 -32.5q22 0 35.5 -13.5t13.5 -34.5t-14.5 -36t-35.5 -15z" />
    <glyph glyph-name="Hcircumflex" unicode="&#x124;" horiz-adv-x="755" 
d="M142 -5q-19 0 -32 13t-13 32v617q0 19 13 32.5t32 13.5t32.5 -13.5t13.5 -32.5v-266h379v266q0 19 13 32.5t32 13.5t32.5 -13.5t13.5 -32.5v-617q0 -19 -13.5 -32t-32.5 -13t-32 13t-13 32v266h-379v-266q0 -19 -13.5 -32t-32.5 -13zM273 738q-13 0 -22 9.5t-8 20.5
q0 11 8 19l68 70q8 8 17 14t23 6h38q14 0 23.5 -6t16.5 -14l68 -70q8 -8 8 -19q1 -11 -8 -20.5t-22 -9.5q-11 0 -18 7l-87 74l-87 -74q-7 -7 -18 -7z" />
    <glyph glyph-name="hcircumflex" unicode="&#x125;" horiz-adv-x="609" 
d="M124 -5q-19 0 -32 13t-13 32v649q0 20 13 33t32 13t32.5 -13t13.5 -33v-261q32 35 75.5 63.5t110.5 28.5q57 0 97 -26.5t61 -71t21 -98.5v-284q0 -19 -13.5 -32t-32.5 -13t-32 13t-13 32v274q0 57 -25.5 89.5t-84.5 32.5q-54 0 -94 -29t-70 -67v-300q0 -19 -13.5 -32
t-32.5 -13zM202 772q-13 0 -22 9.5t-8 20.5q0 11 8 19l68 70q8 8 17 14t23 6h38q14 0 23.5 -6t16.5 -14l68 -70q8 -8 8 -19q1 -11 -8 -20.5t-22 -9.5q-11 0 -18 7l-87 74l-87 -74q-7 -7 -18 -7z" />
    <glyph glyph-name="Hbar" unicode="&#x126;" horiz-adv-x="765" 
d="M147 -5q-19 0 -32 13t-13 32v471h-45q-14 0 -24.5 9.5t-10.5 25.5t10.5 26t24.5 10h45v75q0 19 13 32.5t32 13.5t32.5 -13.5t13.5 -32.5v-75h379v75q0 19 13 32.5t32 13.5t32.5 -13.5t13.5 -32.5v-75h44q14 0 25 -10t11 -26t-11 -25.5t-25 -9.5h-44v-471q0 -19 -13.5 -32
t-32.5 -13t-32 13t-13 32v266h-379v-266q0 -19 -13.5 -32t-32.5 -13zM193 391h379v120h-379v-120z" />
    <glyph glyph-name="hbar" unicode="&#x127;" horiz-adv-x="614" 
d="M129 -5q-19 0 -32 13t-13 32v533h-47q-14 0 -23.5 9.5t-9.5 23.5t9.5 24t23.5 10h47v49q0 20 13 33t32 13t32.5 -13t13.5 -33v-49h116q14 0 24 -10t10 -24t-10 -23.5t-24 -9.5h-116v-145q32 35 75.5 63.5t110.5 28.5q57 0 97 -26.5t61 -71t21 -98.5v-284q0 -19 -13.5 -32
t-32.5 -13t-32 13t-13 32v274q0 57 -25.5 89.5t-84.5 32.5q-54 0 -94 -29t-70 -67v-300q0 -19 -13.5 -32t-32.5 -13z" />
    <glyph glyph-name="Itilde" unicode="&#x128;" horiz-adv-x="285" 
d="M142 -5q-19 0 -32 13t-13 32v617q0 19 13 32.5t32 13.5t32.5 -13.5t13.5 -32.5v-617q0 -19 -13.5 -32t-32.5 -13zM5 743q-9 0 -16 6.5t-7 16.5q0 20 10 42t29 37.5t45 15.5q29 0 54 -11.5t49 -23.5t51 -12q16 0 24.5 7t12.5 20q3 8 8.5 14.5t16.5 6.5t16.5 -6.5
t6.5 -15.5q0 -21 -10.5 -43t-29.5 -37t-44 -15q-30 0 -55 12t-49 24t-50 12q-15 0 -24 -9t-15 -23q-2 -7 -7.5 -12.5t-15.5 -5.5z" />
    <glyph glyph-name="itilde" unicode="&#x129;" horiz-adv-x="249" 
d="M124 -5q-19 0 -32 13t-13 32v429q0 20 13 33t32 13q20 0 33 -13t13 -33v-429q0 -19 -13 -32t-33 -13zM-13 571q-9 0 -16 6.5t-7 16.5q0 20 10 42t29 37.5t45 15.5q29 0 54 -11.5t49 -23.5t51 -12q16 0 24.5 7t12.5 20q3 8 8.5 14.5t16.5 6.5t16.5 -6.5t6.5 -15.5
q0 -21 -10.5 -43t-29.5 -37t-44 -15q-30 0 -55 12t-49 24t-50 12q-15 0 -24 -9t-15 -23q-2 -7 -7.5 -12.5t-15.5 -5.5z" />
    <glyph glyph-name="Imacron" unicode="&#x12a;" horiz-adv-x="285" 
d="M142 -5q-19 0 -32 13t-13 32v617q0 19 13 32.5t32 13.5t32.5 -13.5t13.5 -32.5v-617q0 -19 -13.5 -32t-32.5 -13zM26 760q-13 0 -21.5 8.5t-8.5 21.5t8.5 21.5t21.5 8.5h234q13 0 21.5 -8.5t8.5 -21.5t-8.5 -21.5t-21.5 -8.5h-234z" />
    <glyph glyph-name="imacron" unicode="&#x12b;" horiz-adv-x="249" 
d="M124 -5q-19 0 -32 13t-13 32v429q0 20 13 33t32 13q20 0 33 -13t13 -33v-429q0 -19 -13 -32t-33 -13zM8 588q-13 0 -21.5 8.5t-8.5 21.5t8.5 21.5t21.5 8.5h234q13 0 21.5 -8.5t8.5 -21.5t-8.5 -21.5t-21.5 -8.5h-234z" />
    <glyph glyph-name="Ibreve" unicode="&#x12c;" horiz-adv-x="285" 
d="M142 -5q-19 0 -32 13t-13 32v617q0 19 13 32.5t32 13.5t32.5 -13.5t13.5 -32.5v-617q0 -19 -13.5 -32t-32.5 -13zM143 748q-48 0 -84.5 22t-55.5 59q-3 6 -3 14q0 13 8.5 22t22.5 9q19 0 28 -19q11 -22 33 -35.5t51 -13.5t51.5 13.5t32.5 35.5q9 19 28 19q14 0 22.5 -9
t8.5 -22q0 -8 -3 -14q-19 -37 -55.5 -59t-84.5 -22z" />
    <glyph glyph-name="ibreve" unicode="&#x12d;" horiz-adv-x="249" 
d="M124 -5q-19 0 -32 13t-13 32v429q0 20 13 33t32 13q20 0 33 -13t13 -33v-429q0 -19 -13 -32t-33 -13zM125 576q-48 0 -85.5 22t-54.5 59q-3 6 -3 14q0 13 8.5 22t22.5 9q19 0 28 -19q11 -22 33 -35.5t51 -13.5t51.5 13.5t32.5 35.5q9 19 28 19q14 0 22.5 -9t8.5 -22
q0 -8 -3 -14q-17 -37 -54.5 -59t-85.5 -22z" />
    <glyph glyph-name="Iogonek" unicode="&#x12e;" horiz-adv-x="285" 
d="M149 -203q-43 0 -73 25.5t-30 68.5q0 35 19.5 64t50.5 49q-19 13 -19 36v617q0 19 13 32.5t32 13.5t32.5 -13.5t13.5 -32.5v-607q0 -13 -2.5 -21.5t-9.5 -18.5t-20.5 -24t-25 -34t-11.5 -49q0 -22 13 -36t38 -14q11 0 19.5 2t15.5 4q6 2 9 2q22 0 22 -22q0 -10 -11 -18
q-34 -24 -76 -24z" />
    <glyph glyph-name="iogonek" unicode="&#x12f;" horiz-adv-x="249" 
d="M125 575q-21 0 -36 15t-15 36t15 36t36 15t36 -15t15 -36t-15 -36t-36 -15zM131 -203q-43 0 -73 25.5t-30 68.5q0 35 19.5 64t50.5 49q-19 13 -19 36v429q0 19 13 32.5t32 13.5t32.5 -13.5t13.5 -32.5v-419q0 -13 -2.5 -21.5t-9.5 -18.5t-20.5 -24t-25 -34t-11.5 -49
q0 -22 13 -36t38 -14q11 0 19.5 2t15.5 4q6 2 9 2q22 0 22 -22q0 -10 -11 -18q-34 -24 -76 -24z" />
    <glyph glyph-name="Idotaccent" unicode="&#x130;" horiz-adv-x="285" 
d="M142 -5q-19 0 -32 13t-13 32v617q0 19 13 32.5t32 13.5t32.5 -13.5t13.5 -32.5v-617q0 -19 -13.5 -32t-32.5 -13zM143 747q-21 0 -36 15t-15 36t15 36t36 15t36 -15t15 -36t-15 -36t-36 -15z" />
    <glyph glyph-name="dotlessi" unicode="&#x131;" horiz-adv-x="249" 
d="M124 -5q-19 0 -32 13t-13 32v429q0 20 13 33t32 13q20 0 33 -13t13 -33v-429q0 -19 -13 -32t-33 -13z" />
    <glyph glyph-name="Jcircumflex" unicode="&#x134;" horiz-adv-x="466" 
d="M168 -10q-38 0 -71.5 9t-61.5 25q-9 5 -15.5 14t-6.5 23q0 16 10.5 28.5t27.5 12.5q10 0 18 -4q20 -10 43.5 -16t49.5 -6q30 0 57.5 11t45.5 42.5t18 94.5v433q0 19 13 32.5t32 13.5t32.5 -13.5t13.5 -32.5v-427q0 -72 -17.5 -118.5t-47 -73t-66.5 -37.5t-75 -11z
M223 738q-13 0 -22 9.5t-8 20.5q0 11 8 19l68 70q8 8 17 14t23 6h38q14 0 23.5 -6t16.5 -14l68 -70q8 -8 8 -19q1 -11 -8 -20.5t-22 -9.5q-11 0 -18 7l-87 74l-87 -74q-7 -7 -18 -7z" />
    <glyph glyph-name="jcircumflex" unicode="&#x135;" horiz-adv-x="254" 
d="M44 -240q-36 0 -63 9q-26 8 -26 36q0 15 11 26.5t27 11.5q7 0 14 -1.5t16 -1.5q26 0 43.5 9.5t17.5 49.5v569q0 20 13 33t32 13q20 0 33 -13t13 -33v-571q0 -58 -29.5 -97.5t-101.5 -39.5zM25 566q-13 0 -22 9.5t-8 20.5q0 11 8 19l68 70q8 8 17 14t23 6h38q14 0 23.5 -6
t16.5 -14l68 -70q8 -8 8 -19q1 -11 -8 -20.5t-22 -9.5q-11 0 -18 7l-87 74l-87 -74q-7 -7 -18 -7z" />
    <glyph glyph-name="uni0136" unicode="&#x136;" horiz-adv-x="670" 
d="M142 -5q-19 0 -32 13t-13 32v617q0 19 13 32.5t32 13.5t32.5 -13.5t13.5 -32.5v-318l342 348q5 6 14 11t20 5q18 0 31 -12.5t11 -30.5q-2 -19 -11 -28l-231 -230l265 -334q11 -14 11 -29q1 -18 -12 -31t-32 -13q-23 0 -36 18l-258 329l-114 -115v-187q0 -19 -13.5 -32
t-32.5 -13zM305 -263q-9 0 -15.5 6.5t-6.5 16.5q0 14 12 21q19 11 31 24t12 32q-22 0 -35.5 13.5t-13.5 34.5t14.5 36t35.5 15q23 0 36.5 -15t13.5 -38v-33q0 -43 -21.5 -68t-46.5 -40q-8 -5 -16 -5z" />
    <glyph glyph-name="uni0137" unicode="&#x137;" horiz-adv-x="545" 
d="M124 -5q-19 0 -32 13t-13 32v649q0 19 13 32.5t32 13.5t32.5 -13.5t13.5 -32.5v-409l238 220q6 5 13.5 9t16.5 4q26 0 35 -14.5t9 -29.5q0 -6 -3 -14.5t-14 -19.5l-144 -129l181 -240q10 -13 10 -27q0 -20 -13 -32t-33 -12q-21 0 -37 19l-172 234l-87 -79v-129
q0 -19 -13.5 -32t-32.5 -13zM243 -263q-9 0 -15.5 6.5t-6.5 16.5q0 14 12 21q19 11 31 24t12 32q-22 0 -35.5 13.5t-13.5 34.5t14.5 36t35.5 15q23 0 36.5 -15t13.5 -38v-33q0 -43 -21.5 -68t-46.5 -40q-8 -5 -16 -5z" />
    <glyph glyph-name="kgreenlandic" unicode="&#x138;" horiz-adv-x="545" 
d="M124 -5q-19 0 -32 13t-13 32v429q0 19 13 32.5t32 13.5t32.5 -13.5t13.5 -32.5v-189l238 220q6 5 13.5 9t16.5 4q26 0 35 -14.5t9 -29.5q0 -6 -3 -14.5t-14 -19.5l-144 -129l181 -240q10 -13 10 -27q0 -20 -13 -32t-33 -12q-21 0 -37 19l-172 234l-87 -79v-129
q0 -19 -13.5 -32t-32.5 -13z" />
    <glyph glyph-name="Lacute" unicode="&#x139;" horiz-adv-x="576" 
d="M160 0q-26 0 -44.5 18.5t-18.5 44.5v594q0 19 13 32.5t32 13.5t32.5 -13.5t13.5 -32.5v-566h327q19 0 32.5 -13.5t13.5 -32.5t-13.5 -32t-32.5 -13h-355zM142 739q-12 0 -19.5 7.5t-7.5 19.5q0 6 3 11.5t4 7.5l51 90q5 8 12.5 13.5t20.5 5.5q17 0 27 -10t10 -27
q0 -14 -10 -25l-69 -82q-9 -11 -22 -11z" />
    <glyph glyph-name="lacute" unicode="&#x13a;" horiz-adv-x="249" 
d="M124 -5q-19 0 -32 13t-13 32v649q0 20 13 33t32 13q20 0 33 -13t13 -33v-649q0 -19 -13 -32t-33 -13zM125 773q-12 0 -19.5 7.5t-7.5 19.5q0 6 3 11.5t4 7.5l51 90q5 8 12.5 13.5t20.5 5.5q17 0 27 -10t10 -27q0 -14 -10 -25l-69 -82q-9 -11 -22 -11z" />
    <glyph glyph-name="uni013B" unicode="&#x13b;" horiz-adv-x="576" 
d="M160 0q-26 0 -44.5 18.5t-18.5 44.5v594q0 19 13 32.5t32 13.5t32.5 -13.5t13.5 -32.5v-566h327q19 0 32.5 -13.5t13.5 -32.5t-13.5 -32t-32.5 -13h-355zM299 -263q-9 0 -15.5 6.5t-6.5 16.5q0 14 12 21q19 11 31 24t12 32q-22 0 -35.5 13.5t-13.5 34.5t14.5 36t35.5 15
q23 0 36.5 -15t13.5 -38v-33q0 -43 -21.5 -68t-46.5 -40q-8 -5 -16 -5z" />
    <glyph glyph-name="uni013C" unicode="&#x13c;" horiz-adv-x="249" 
d="M124 -5q-19 0 -32 13t-13 32v649q0 20 13 33t32 13q20 0 33 -13t13 -33v-649q0 -19 -13 -32t-33 -13zM95 -263q-9 0 -15.5 6.5t-6.5 16.5q0 14 12 21q19 11 31 24t12 32q-22 0 -35.5 13.5t-13.5 34.5t14.5 36t35.5 15q23 0 36.5 -15t13.5 -38v-33q0 -43 -21.5 -68
t-46.5 -40q-8 -5 -16 -5z" />
    <glyph glyph-name="Lcaron" unicode="&#x13d;" horiz-adv-x="576" 
d="M160 0q-26 0 -44.5 18.5t-18.5 44.5v594q0 19 13 32.5t32 13.5t32.5 -13.5t13.5 -32.5v-566h327q19 0 32.5 -13.5t13.5 -32.5t-13.5 -32t-32.5 -13h-355zM324 486q-8 0 -15.5 6.5t-7.5 19.5q0 8 4.5 13.5t10.5 9.5q14 10 27 22.5t13 34.5q-24 0 -39.5 14.5t-15.5 37.5
t16 40t40 17q25 0 40 -17t15 -41v-37q0 -38 -20 -61t-49 -52q-7 -7 -19 -7z" />
    <glyph glyph-name="lcaron" unicode="&#x13e;" horiz-adv-x="249" 
d="M124 -5q-19 0 -32 13t-13 32v649q0 20 13 33t32 13q20 0 33 -13t13 -33v-649q0 -19 -13 -32t-33 -13zM219 554q-7 0 -13 6t-6 16q0 7 4 11t9 8q11 8 22 19t11 29q-20 0 -33 12.5t-13 31.5q0 20 13.5 34t33.5 14q21 0 33.5 -14.5t12.5 -34.5v-31q0 -32 -15 -53.5
t-43 -41.5q-6 -6 -16 -6z" />
    <glyph glyph-name="Ldot" unicode="&#x13f;" horiz-adv-x="576" 
d="M160 0q-26 0 -44.5 18.5t-18.5 44.5v594q0 19 13 32.5t32 13.5t32.5 -13.5t13.5 -32.5v-566h327q19 0 32.5 -13.5t13.5 -32.5t-13.5 -32t-32.5 -13h-355zM417 336q-23 0 -39.5 16.5t-16.5 39.5v6q0 23 16.5 39.5t39.5 16.5h10q23 0 39.5 -16.5t16.5 -39.5v-6
q0 -23 -16.5 -39.5t-39.5 -16.5h-10z" />
    <glyph glyph-name="ldot" unicode="&#x140;" horiz-adv-x="269" 
d="M124 -5q-19 0 -32 13t-13 32v649q0 20 13 33t32 13q20 0 33 -13t13 -33v-649q0 -19 -13 -32t-33 -13zM260 316q-21 0 -36 15t-15 36t15 36t36 15t36 -15t15 -36t-15 -36t-36 -15z" />
    <glyph glyph-name="Lslash" unicode="&#x141;" horiz-adv-x="581" 
d="M165 0q-26 0 -44.5 18.5t-18.5 44.5v239l-17 -17q-14 -14 -30 -14q-13 0 -23.5 9.5t-10.5 23.5q0 16 14 30l67 67v256q0 19 13 32.5t32 13.5t32.5 -13.5t13.5 -32.5v-164l60 60q12 12 27 12q14 0 24.5 -10.5t10.5 -24.5q0 -15 -14 -29l-108 -108v-302h327
q19 0 32.5 -13.5t13.5 -32.5t-13.5 -32t-32.5 -13h-355z" />
    <glyph glyph-name="lslash" unicode="&#x142;" horiz-adv-x="259" 
d="M129 -5q-19 0 -32 13t-13 32v261l-23 -23q-10 -10 -23 -10t-23.5 11t-10.5 24t10 23l70 70v293q0 20 13 33t32 13q20 0 33 -13t13 -33v-201l21 21q10 10 23 10q14 0 25 -10t11 -24q0 -13 -11 -24l-69 -69v-352q0 -19 -13 -32t-33 -13z" />
    <glyph glyph-name="Nacute" unicode="&#x143;" horiz-adv-x="803" 
d="M142 -5q-19 0 -32 13t-13 32v597q0 27 19 46.5t46 19.5h13q17 0 31 -8t24 -22l385 -556v540q0 19 13 32.5t32 13.5t32.5 -13.5t13.5 -32.5v-597q0 -27 -19.5 -46t-46.5 -19h-12q-16 0 -30 7.5t-23 19.5l-387 559v-541q0 -19 -13.5 -32t-32.5 -13zM402 739
q-12 0 -19.5 7.5t-7.5 19.5q0 6 3 11.5t4 7.5l51 90q5 8 12.5 13.5t20.5 5.5q17 0 27 -10t10 -27q0 -14 -10 -25l-69 -82q-9 -11 -22 -11z" />
    <glyph glyph-name="nacute" unicode="&#x144;" horiz-adv-x="609" 
d="M124 -5q-19 0 -32 13t-13 32v429q0 20 13 33t32 13t32.5 -13t13.5 -33v-41q32 35 75.5 63.5t110.5 28.5q57 0 97 -26.5t61 -71t21 -98.5v-284q0 -19 -13.5 -32t-32.5 -13t-32 13t-13 32v274q0 57 -25.5 89.5t-84.5 32.5q-54 0 -94 -29t-70 -67v-300q0 -19 -13.5 -32
t-32.5 -13zM305 567q-12 0 -19.5 7.5t-7.5 19.5q0 6 3 11.5t4 7.5l51 90q5 8 12.5 13.5t20.5 5.5q17 0 27 -10t10 -27q0 -14 -10 -25l-69 -82q-9 -11 -22 -11z" />
    <glyph glyph-name="uni0145" unicode="&#x145;" horiz-adv-x="803" 
d="M142 -5q-19 0 -32 13t-13 32v597q0 27 19 46.5t46 19.5h13q17 0 31 -8t24 -22l385 -556v540q0 19 13 32.5t32 13.5t32.5 -13.5t13.5 -32.5v-597q0 -27 -19.5 -46t-46.5 -19h-12q-16 0 -30 7.5t-23 19.5l-387 559v-541q0 -19 -13.5 -32t-32.5 -13zM372 -263
q-9 0 -15.5 6.5t-6.5 16.5q0 14 12 21q19 11 31 24t12 32q-22 0 -35.5 13.5t-13.5 34.5t14.5 36t35.5 15q23 0 36.5 -15t13.5 -38v-33q0 -43 -21.5 -68t-46.5 -40q-8 -5 -16 -5z" />
    <glyph glyph-name="uni0146" unicode="&#x146;" horiz-adv-x="609" 
d="M124 -5q-19 0 -32 13t-13 32v429q0 20 13 33t32 13t32.5 -13t13.5 -33v-41q32 35 75.5 63.5t110.5 28.5q57 0 97 -26.5t61 -71t21 -98.5v-284q0 -19 -13.5 -32t-32.5 -13t-32 13t-13 32v274q0 57 -25.5 89.5t-84.5 32.5q-54 0 -94 -29t-70 -67v-300q0 -19 -13.5 -32
t-32.5 -13zM275 -263q-9 0 -15.5 6.5t-6.5 16.5q0 14 12 21q19 11 31 24t12 32q-22 0 -35.5 13.5t-13.5 34.5t14.5 36t35.5 15q23 0 36.5 -15t13.5 -38v-33q0 -43 -21.5 -68t-46.5 -40q-8 -5 -16 -5z" />
    <glyph glyph-name="Ncaron" unicode="&#x147;" horiz-adv-x="803" 
d="M142 -5q-19 0 -32 13t-13 32v597q0 27 19 46.5t46 19.5h13q17 0 31 -8t24 -22l385 -556v540q0 19 13 32.5t32 13.5t32.5 -13.5t13.5 -32.5v-597q0 -27 -19.5 -46t-46.5 -19h-12q-16 0 -30 7.5t-23 19.5l-387 559v-541q0 -19 -13.5 -32t-32.5 -13zM383 739q-14 0 -23 6
t-17 14l-68 70q-8 8 -8 19q-1 11 8 20.5t22 9.5q11 0 18 -7l87 -74l87 74q7 7 18 7q13 0 22 -9.5t8 -20.5q0 -11 -8 -19l-68 -70q-7 -8 -16.5 -14t-23.5 -6h-38z" />
    <glyph glyph-name="ncaron" unicode="&#x148;" horiz-adv-x="609" 
d="M124 -5q-19 0 -32 13t-13 32v429q0 20 13 33t32 13t32.5 -13t13.5 -33v-41q32 35 75.5 63.5t110.5 28.5q57 0 97 -26.5t61 -71t21 -98.5v-284q0 -19 -13.5 -32t-32.5 -13t-32 13t-13 32v274q0 57 -25.5 89.5t-84.5 32.5q-54 0 -94 -29t-70 -67v-300q0 -19 -13.5 -32
t-32.5 -13zM286 567q-14 0 -23 6t-17 14l-68 70q-8 8 -8 19q-1 11 8 20.5t22 9.5q11 0 18 -7l87 -74l87 74q7 7 18 7q13 0 22 -9.5t8 -20.5q0 -11 -8 -19l-68 -70q-7 -8 -16.5 -14t-23.5 -6h-38z" />
    <glyph glyph-name="napostrophe" unicode="&#x149;" horiz-adv-x="609" 
d="M-1 554q-7 0 -13 6t-6 16q0 7 4 11t9 8q11 8 22 19t11 29q-20 0 -33 12.5t-13 31.5q0 20 13.5 34t33.5 14q21 0 33.5 -14.5t12.5 -34.5v-31q0 -32 -15 -53.5t-43 -41.5q-6 -6 -16 -6zM124 -5q-19 0 -32 13t-13 32v429q0 20 13 33t32 13t32.5 -13t13.5 -33v-41
q32 35 75.5 63.5t110.5 28.5q57 0 97 -26.5t61 -71t21 -98.5v-284q0 -19 -13.5 -32t-32.5 -13t-32 13t-13 32v274q0 57 -25.5 89.5t-84.5 32.5q-54 0 -94 -29t-70 -67v-300q0 -19 -13.5 -32t-32.5 -13z" />
    <glyph glyph-name="Eng" unicode="&#x14a;" horiz-adv-x="803" 
d="M575 -240q-36 0 -63 9q-26 8 -26 36q0 15 11 26.5t27 11.5q7 0 14 -1.5t16 -1.5q26 0 43.5 15.5t17.5 63.5v65l-427 597v-541q0 -19 -13.5 -32t-32.5 -13t-32 13t-13 32v597q0 27 19 46.5t46 19.5h13q17 0 31 -8t24 -22l385 -536v520q0 19 13 32.5t32 13.5t32.5 -13.5
t13.5 -32.5v-740q0 -43 -13 -79t-41.5 -57t-76.5 -21z" />
    <glyph glyph-name="eng" unicode="&#x14b;" horiz-adv-x="609" 
d="M404 -240q-36 0 -63 9q-26 8 -26 36q0 15 11 26.5t27 11.5q7 0 14 -1.5t16 -1.5q26 0 43.5 15.5t17.5 63.5v395q0 57 -25.5 89.5t-84.5 32.5q-54 0 -94 -29t-70 -67v-300q0 -19 -13.5 -32t-32.5 -13t-32 13t-13 32v429q0 20 13 33t32 13t32.5 -13t13.5 -33v-41
q32 35 75.5 63.5t110.5 28.5q57 0 97 -26.5t61 -71t21 -98.5v-407q0 -43 -13 -79t-41.5 -57t-76.5 -21z" />
    <glyph glyph-name="Omacron" unicode="&#x14c;" horiz-adv-x="812" 
d="M406 -10q-107 0 -185 46t-121 127t-45 186q2 105 45 186t121 127t185 46t185 -46t121 -127t45 -186q-2 -105 -45 -186t-121 -127t-185 -46zM406 75q83 0 141 36.5t88.5 98.5t30.5 139t-30.5 139t-88.5 98.5t-141 36.5t-141 -36.5t-88.5 -98.5t-30.5 -139t30.5 -139
t88.5 -98.5t141 -36.5zM289 760q-13 0 -21.5 8.5t-8.5 21.5t8.5 21.5t21.5 8.5h234q13 0 21.5 -8.5t8.5 -21.5t-8.5 -21.5t-21.5 -8.5h-234z" />
    <glyph glyph-name="omacron" unicode="&#x14d;" horiz-adv-x="608" 
d="M304 -10q-77 0 -135 33.5t-89.5 93t-31.5 138.5t31.5 138.5t89.5 93t135 33.5t134.5 -33.5t89.5 -93t32 -138.5t-32 -138.5t-89.5 -93t-134.5 -33.5zM304 73q38 0 76 18t63.5 58.5t25.5 106.5t-25.5 106t-63.5 57.5t-76 17.5t-76.5 -17.5t-63.5 -57.5t-25 -106t25 -106.5
t63.5 -58.5t76.5 -18zM187 588q-13 0 -21.5 8.5t-8.5 21.5t8.5 21.5t21.5 8.5h234q13 0 21.5 -8.5t8.5 -21.5t-8.5 -21.5t-21.5 -8.5h-234z" />
    <glyph glyph-name="Obreve" unicode="&#x14e;" horiz-adv-x="812" 
d="M406 -10q-107 0 -185 46t-121 127t-45 186q2 105 45 186t121 127t185 46t185 -46t121 -127t45 -186q-2 -105 -45 -186t-121 -127t-185 -46zM406 75q83 0 141 36.5t88.5 98.5t30.5 139t-30.5 139t-88.5 98.5t-141 36.5t-141 -36.5t-88.5 -98.5t-30.5 -139t30.5 -139
t88.5 -98.5t141 -36.5zM406 748q-48 0 -84.5 22t-55.5 59q-3 6 -3 14q0 13 8.5 22t22.5 9q19 0 28 -19q11 -22 33 -35.5t51 -13.5t51.5 13.5t32.5 35.5q9 19 28 19q14 0 22.5 -9t8.5 -22q0 -8 -3 -14q-19 -37 -55.5 -59t-84.5 -22z" />
    <glyph glyph-name="obreve" unicode="&#x14f;" horiz-adv-x="608" 
d="M304 -10q-77 0 -135 33.5t-89.5 93t-31.5 138.5t31.5 138.5t89.5 93t135 33.5t134.5 -33.5t89.5 -93t32 -138.5t-32 -138.5t-89.5 -93t-134.5 -33.5zM304 73q38 0 76 18t63.5 58.5t25.5 106.5t-25.5 106t-63.5 57.5t-76 17.5t-76.5 -17.5t-63.5 -57.5t-25 -106t25 -106.5
t63.5 -58.5t76.5 -18zM304 576q-48 0 -85.5 22t-54.5 59q-3 6 -3 14q0 13 8.5 22t22.5 9q19 0 28 -19q11 -22 33 -35.5t51 -13.5t51.5 13.5t32.5 35.5q9 19 28 19q14 0 22.5 -9t8.5 -22q0 -8 -3 -14q-17 -37 -54.5 -59t-85.5 -22z" />
    <glyph glyph-name="Ohungarumlaut" unicode="&#x150;" horiz-adv-x="812" 
d="M406 -10q-107 0 -185 46t-121 127t-45 186q2 105 45 186t121 127t185 46t185 -46t121 -127t45 -186q-2 -105 -45 -186t-121 -127t-185 -46zM406 75q83 0 141 36.5t88.5 98.5t30.5 139t-30.5 139t-88.5 98.5t-141 36.5t-141 -36.5t-88.5 -98.5t-30.5 -139t30.5 -139
t88.5 -98.5t141 -36.5zM463 739q-10 0 -18.5 7t-8.5 18q0 5 1 8l27 90q5 16 16 23.5t22 7.5q14 0 24.5 -8.5t10.5 -24.5q0 -12 -7 -25l-41 -79q-8 -17 -26 -17zM347 739q-10 0 -18.5 7t-8.5 18q0 5 1 8l27 90q5 16 16 23.5t22 7.5q14 0 24.5 -8.5t10.5 -24.5q0 -12 -7 -25
l-41 -79q-8 -17 -26 -17z" />
    <glyph glyph-name="ohungarumlaut" unicode="&#x151;" horiz-adv-x="608" 
d="M304 -10q-77 0 -135 33.5t-89.5 93t-31.5 138.5t31.5 138.5t89.5 93t135 33.5t134.5 -33.5t89.5 -93t32 -138.5t-32 -138.5t-89.5 -93t-134.5 -33.5zM304 73q38 0 76 18t63.5 58.5t25.5 106.5t-25.5 106t-63.5 57.5t-76 17.5t-76.5 -17.5t-63.5 -57.5t-25 -106t25 -106.5
t63.5 -58.5t76.5 -18zM361 567q-10 0 -18.5 7t-8.5 18q0 5 1 8l27 90q5 16 16 23.5t22 7.5q14 0 24.5 -8.5t10.5 -24.5q0 -12 -7 -25l-41 -79q-8 -17 -26 -17zM245 567q-10 0 -18.5 7t-8.5 18q0 5 1 8l27 90q5 16 16 23.5t22 7.5q14 0 24.5 -8.5t10.5 -24.5q0 -12 -7 -25
l-41 -79q-8 -17 -26 -17z" />
    <glyph glyph-name="OE" unicode="&#x152;" horiz-adv-x="1207" 
d="M406 -10q-107 0 -185 46t-121 127t-45 186q2 105 45 186t121 127t185 46q86 0 152 -34t108 -95v73q0 19 13 32.5t32 13.5h401q18 0 30.5 -12.5t12.5 -30.5t-12.5 -30t-30.5 -12h-355v-221h319q18 0 30.5 -12.5t12.5 -30.5t-12.5 -30t-30.5 -12h-319v-222h355
q18 0 30.5 -12.5t12.5 -30.5t-12.5 -30t-30.5 -12h-401q-19 0 -32 13t-13 32v74q-42 -61 -108 -95t-152 -34zM406 75q83 0 141 36.5t88.5 98.5t30.5 139t-30.5 139t-88.5 98.5t-141 36.5t-141 -36.5t-88.5 -98.5t-30.5 -139t30.5 -139t88.5 -98.5t141 -36.5z" />
    <glyph glyph-name="oe" unicode="&#x153;" horiz-adv-x="987" 
d="M304 -10q-77 0 -135 33.5t-89.5 93t-31.5 138.5t31.5 138.5t89.5 93t135 33.5q69 0 123 -31t86 -85q26 51 74.5 83.5t120.5 32.5q77 0 130 -35.5t80.5 -92.5t27.5 -124q0 -19 -12.5 -32t-33.5 -13h-339q8 -67 51 -107.5t124 -40.5q45 0 76 8.5t59 22.5q8 4 18 4
q16 0 28 -11t12 -28q0 -12 -7.5 -21.5t-18.5 -15.5q-33 -19 -71.5 -31.5t-103.5 -12.5q-76 0 -131 29.5t-85 85.5q-31 -54 -85 -84.5t-123 -30.5zM561 297h295q-3 52 -26.5 84t-56.5 47t-65 15t-65 -15t-56 -47t-26 -84zM304 73q38 0 76 18t63.5 58.5t25.5 106.5t-25.5 106
t-63.5 57.5t-76 17.5t-76.5 -17.5t-63.5 -57.5t-25 -106t25 -106.5t63.5 -58.5t76.5 -18z" />
    <glyph glyph-name="Racute" unicode="&#x154;" horiz-adv-x="712" 
d="M142 -5q-19 0 -32 13t-13 32v612q0 19 13 32.5t32 13.5h233q95 0 155 -27t88.5 -72.5t28.5 -103.5t-32.5 -108t-98.5 -73q42 -11 67 -39.5t37.5 -64.5t16.5 -69.5t4 -54.5v-46q0 -19 -13 -32t-32 -13q-21 0 -33.5 12.5t-12.5 32.5v30q0 25 -3.5 59t-17.5 67t-45.5 54.5
t-88.5 21.5h-207v-232q0 -19 -13.5 -32t-32.5 -13zM188 358h181q84 0 135.5 33t51.5 97q0 37 -17 65t-59 43.5t-116 15.5h-176v-254zM356 739q-12 0 -19.5 7.5t-7.5 19.5q0 6 3 11.5t4 7.5l51 90q5 8 12.5 13.5t20.5 5.5q17 0 27 -10t10 -27q0 -14 -10 -25l-69 -82
q-9 -11 -22 -11z" />
    <glyph glyph-name="racute" unicode="&#x155;" horiz-adv-x="383" 
d="M124 -5q-19 0 -32 13t-13 32v429q0 19 13 32.5t32 13.5t32.5 -13.5t13.5 -32.5v-43q27 36 66 65t91 29h5q19 0 31.5 -13t12.5 -32t-13 -31t-33 -12h-5q-49 0 -89 -24.5t-66 -63.5v-304q0 -19 -13.5 -32t-32.5 -13zM208 567q-12 0 -19.5 7.5t-7.5 19.5q0 6 3 11.5t4 7.5
l51 90q5 8 12.5 13.5t20.5 5.5q17 0 27 -10t10 -27q0 -14 -10 -25l-69 -82q-9 -11 -22 -11z" />
    <glyph glyph-name="uni0156" unicode="&#x156;" horiz-adv-x="712" 
d="M142 -5q-19 0 -32 13t-13 32v612q0 19 13 32.5t32 13.5h233q95 0 155 -27t88.5 -72.5t28.5 -103.5t-32.5 -108t-98.5 -73q42 -11 67 -39.5t37.5 -64.5t16.5 -69.5t4 -54.5v-46q0 -19 -13 -32t-32 -13q-21 0 -33.5 12.5t-12.5 32.5v30q0 25 -3.5 59t-17.5 67t-45.5 54.5
t-88.5 21.5h-207v-232q0 -19 -13.5 -32t-32.5 -13zM188 358h181q84 0 135.5 33t51.5 97q0 37 -17 65t-59 43.5t-116 15.5h-176v-254zM326 -263q-9 0 -15.5 6.5t-6.5 16.5q0 14 12 21q19 11 31 24t12 32q-22 0 -35.5 13.5t-13.5 34.5t14.5 36t35.5 15q23 0 36.5 -15t13.5 -38
v-33q0 -43 -21.5 -68t-46.5 -40q-8 -5 -16 -5z" />
    <glyph glyph-name="uni0157" unicode="&#x157;" horiz-adv-x="383" 
d="M124 -5q-19 0 -32 13t-13 32v429q0 19 13 32.5t32 13.5t32.5 -13.5t13.5 -32.5v-43q27 36 66 65t91 29h5q19 0 31.5 -13t12.5 -32t-13 -31t-33 -12h-5q-49 0 -89 -24.5t-66 -63.5v-304q0 -19 -13.5 -32t-32.5 -13zM94 -263q-9 0 -15.5 6.5t-6.5 16.5q0 14 12 21
q19 11 31 24t12 32q-22 0 -35.5 13.5t-13.5 34.5t14.5 36t35.5 15q23 0 36.5 -15t13.5 -38v-33q0 -43 -21.5 -68t-46.5 -40q-8 -5 -16 -5z" />
    <glyph glyph-name="Rcaron" unicode="&#x158;" horiz-adv-x="712" 
d="M142 -5q-19 0 -32 13t-13 32v612q0 19 13 32.5t32 13.5h233q95 0 155 -27t88.5 -72.5t28.5 -103.5t-32.5 -108t-98.5 -73q42 -11 67 -39.5t37.5 -64.5t16.5 -69.5t4 -54.5v-46q0 -19 -13 -32t-32 -13q-21 0 -33.5 12.5t-12.5 32.5v30q0 25 -3.5 59t-17.5 67t-45.5 54.5
t-88.5 21.5h-207v-232q0 -19 -13.5 -32t-32.5 -13zM188 358h181q84 0 135.5 33t51.5 97q0 37 -17 65t-59 43.5t-116 15.5h-176v-254zM337 739q-14 0 -23 6t-17 14l-68 70q-8 8 -8 19q-1 11 8 20.5t22 9.5q11 0 18 -7l87 -74l87 74q7 7 18 7q13 0 22 -9.5t8 -20.5
q0 -11 -8 -19l-68 -70q-7 -8 -16.5 -14t-23.5 -6h-38z" />
    <glyph glyph-name="rcaron" unicode="&#x159;" horiz-adv-x="383" 
d="M124 -5q-19 0 -32 13t-13 32v429q0 19 13 32.5t32 13.5t32.5 -13.5t13.5 -32.5v-43q27 36 66 65t91 29h5q19 0 31.5 -13t12.5 -32t-13 -31t-33 -12h-5q-49 0 -89 -24.5t-66 -63.5v-304q0 -19 -13.5 -32t-32.5 -13zM189 567q-14 0 -23 6t-17 14l-68 70q-8 8 -8 19
q-1 11 8 20.5t22 9.5q11 0 18 -7l87 -74l87 74q7 7 18 7q13 0 22 -9.5t8 -20.5q0 -11 -8 -19l-68 -70q-7 -8 -16.5 -14t-23.5 -6h-38z" />
    <glyph glyph-name="Sacute" unicode="&#x15a;" horiz-adv-x="616" 
d="M317 -10q-75 0 -134.5 14.5t-103.5 33.5q-11 5 -19.5 16.5t-8.5 24.5q0 17 11 29.5t30 12.5q10 0 19 -4q34 -15 83.5 -28t113.5 -13q50 0 89.5 10.5t62.5 36t23 68.5q0 32 -23 51.5t-61 32.5t-83.5 24t-90.5 24.5t-83 35.5t-61 56.5t-23 87.5q0 56 29.5 102.5t87.5 74.5
t142 28q59 0 109 -9t90 -24q11 -4 19.5 -13t8.5 -27q0 -15 -10.5 -28.5t-29.5 -13.5q-4 0 -8 1.5t-8 2.5q-34 12 -74.5 19.5t-86.5 7.5q-76 0 -127 -29t-51 -85q0 -37 23 -59t61 -35t83 -23.5t90 -23.5t83 -34.5t61 -57t23 -92.5q0 -56 -31.5 -100.5t-89 -69.5t-135.5 -25z
M308 739q-12 0 -19.5 7.5t-7.5 19.5q0 6 3 11.5t4 7.5l51 90q5 8 12.5 13.5t20.5 5.5q17 0 27 -10t10 -27q0 -14 -10 -25l-69 -82q-9 -11 -22 -11z" />
    <glyph glyph-name="sacute" unicode="&#x15b;" horiz-adv-x="480" 
d="M244 -10q-55 0 -99.5 12t-82.5 33q-17 12 -17 33q0 15 11 27.5t28 12.5q9 0 18 -4q27 -12 59.5 -21t76.5 -9q58 0 84.5 18.5t26.5 52.5q0 22 -21.5 34t-56 20.5t-72.5 18t-72.5 26t-56 45t-21.5 73.5q0 68 49 113t146 45q41 0 77.5 -7t67.5 -18q14 -4 21.5 -15.5
t7.5 -22.5q0 -16 -11.5 -28t-28.5 -12q-4 0 -7 0.5t-6 1.5q-24 8 -52.5 13t-61.5 5q-55 0 -85 -20t-30 -50q0 -26 21.5 -40t56 -22.5t73 -17.5t73 -25.5t56 -45.5t21.5 -78q0 -61 -48.5 -104.5t-144.5 -43.5zM237 567q-12 0 -19.5 7.5t-7.5 19.5q0 6 3 11.5t4 7.5l51 90
q5 8 12.5 13.5t20.5 5.5q17 0 27 -10t10 -27q0 -14 -10 -25l-69 -82q-9 -11 -22 -11z" />
    <glyph glyph-name="Scircumflex" unicode="&#x15c;" horiz-adv-x="616" 
d="M317 -10q-75 0 -134.5 14.5t-103.5 33.5q-11 5 -19.5 16.5t-8.5 24.5q0 17 11 29.5t30 12.5q10 0 19 -4q34 -15 83.5 -28t113.5 -13q50 0 89.5 10.5t62.5 36t23 68.5q0 32 -23 51.5t-61 32.5t-83.5 24t-90.5 24.5t-83 35.5t-61 56.5t-23 87.5q0 56 29.5 102.5t87.5 74.5
t142 28q59 0 109 -9t90 -24q11 -4 19.5 -13t8.5 -27q0 -15 -10.5 -28.5t-29.5 -13.5q-4 0 -8 1.5t-8 2.5q-34 12 -74.5 19.5t-86.5 7.5q-76 0 -127 -29t-51 -85q0 -37 23 -59t61 -35t83 -23.5t90 -23.5t83 -34.5t61 -57t23 -92.5q0 -56 -31.5 -100.5t-89 -69.5t-135.5 -25z
M203 738q-13 0 -22 9.5t-8 20.5q0 11 8 19l68 70q8 8 17 14t23 6h38q14 0 23.5 -6t16.5 -14l68 -70q8 -8 8 -19q1 -11 -8 -20.5t-22 -9.5q-11 0 -18 7l-87 74l-87 -74q-7 -7 -18 -7z" />
    <glyph glyph-name="scircumflex" unicode="&#x15d;" horiz-adv-x="480" 
d="M244 -10q-55 0 -99.5 12t-82.5 33q-17 12 -17 33q0 15 11 27.5t28 12.5q9 0 18 -4q27 -12 59.5 -21t76.5 -9q58 0 84.5 18.5t26.5 52.5q0 22 -21.5 34t-56 20.5t-72.5 18t-72.5 26t-56 45t-21.5 73.5q0 68 49 113t146 45q41 0 77.5 -7t67.5 -18q14 -4 21.5 -15.5
t7.5 -22.5q0 -16 -11.5 -28t-28.5 -12q-4 0 -7 0.5t-6 1.5q-24 8 -52.5 13t-61.5 5q-55 0 -85 -20t-30 -50q0 -26 21.5 -40t56 -22.5t73 -17.5t73 -25.5t56 -45.5t21.5 -78q0 -61 -48.5 -104.5t-144.5 -43.5zM132 566q-13 0 -22 9.5t-8 20.5q0 11 8 19l68 70q8 8 17 14t23 6
h38q14 0 23.5 -6t16.5 -14l68 -70q8 -8 8 -19q1 -11 -8 -20.5t-22 -9.5q-11 0 -18 7l-87 74l-87 -74q-7 -7 -18 -7z" />
    <glyph glyph-name="Scedilla" unicode="&#x15e;" horiz-adv-x="616" 
d="M317 -10q-75 0 -134.5 14.5t-103.5 33.5q-11 5 -19.5 16.5t-8.5 24.5q0 17 11 29.5t30 12.5q10 0 19 -4q34 -15 83.5 -28t113.5 -13q50 0 89.5 10.5t62.5 36t23 68.5q0 32 -23 51.5t-61 32.5t-83.5 24t-90.5 24.5t-83 35.5t-61 56.5t-23 87.5q0 56 29.5 102.5t87.5 74.5
t142 28q59 0 109 -9t90 -24q11 -4 19.5 -13t8.5 -27q0 -15 -10.5 -28.5t-29.5 -13.5q-4 0 -8 1.5t-8 2.5q-34 12 -74.5 19.5t-86.5 7.5q-76 0 -127 -29t-51 -85q0 -37 23 -59t61 -35t83 -23.5t90 -23.5t83 -34.5t61 -57t23 -92.5q0 -56 -31.5 -100.5t-89 -69.5t-135.5 -25z
M295 -221q-16 0 -40 5t-50 21q-4 2 -7.5 7t-3.5 10q0 8 4.5 14t14.5 6q3 0 6 -1t4 -2q17 -9 31.5 -13t27.5 -4q24 0 40.5 10t16.5 36q0 15 -10.5 23t-25.5 8q-10 0 -20 -2t-24 -9q-1 -1 -4 -2t-6 -1q-7 0 -12.5 4.5t-5.5 11.5q0 5 1.5 8.5t2.5 5.5l64 102h42l-46 -80
q16 4 34 4q34 0 55.5 -19t21.5 -51q0 -46 -29 -69t-82 -23z" />
    <glyph glyph-name="scedilla" unicode="&#x15f;" horiz-adv-x="480" 
d="M244 -10q-55 0 -99.5 12t-82.5 33q-17 12 -17 33q0 15 11 27.5t28 12.5q9 0 18 -4q27 -12 59.5 -21t76.5 -9q58 0 84.5 18.5t26.5 52.5q0 22 -21.5 34t-56 20.5t-72.5 18t-72.5 26t-56 45t-21.5 73.5q0 68 49 113t146 45q41 0 77.5 -7t67.5 -18q14 -4 21.5 -15.5
t7.5 -22.5q0 -16 -11.5 -28t-28.5 -12q-4 0 -7 0.5t-6 1.5q-24 8 -52.5 13t-61.5 5q-55 0 -85 -20t-30 -50q0 -26 21.5 -40t56 -22.5t73 -17.5t73 -25.5t56 -45.5t21.5 -78q0 -61 -48.5 -104.5t-144.5 -43.5zM224 -221q-16 0 -40 5t-50 21q-4 2 -7.5 7t-3.5 10q0 8 4.5 14
t14.5 6q3 0 6 -1t4 -2q17 -9 31.5 -13t27.5 -4q24 0 40.5 10t16.5 36q0 15 -10.5 23t-25.5 8q-10 0 -20 -2t-24 -9q-1 -1 -4 -2t-6 -1q-7 0 -12.5 4.5t-5.5 11.5q0 5 1.5 8.5t2.5 5.5l64 102h42l-46 -80q16 4 34 4q34 0 55.5 -19t21.5 -51q0 -46 -29 -69t-82 -23z" />
    <glyph glyph-name="Scaron" unicode="&#x160;" horiz-adv-x="616" 
d="M317 -10q-75 0 -134.5 14.5t-103.5 33.5q-11 5 -19.5 16.5t-8.5 24.5q0 17 11 29.5t30 12.5q10 0 19 -4q34 -15 83.5 -28t113.5 -13q50 0 89.5 10.5t62.5 36t23 68.5q0 32 -23 51.5t-61 32.5t-83.5 24t-90.5 24.5t-83 35.5t-61 56.5t-23 87.5q0 56 29.5 102.5t87.5 74.5
t142 28q59 0 109 -9t90 -24q11 -4 19.5 -13t8.5 -27q0 -15 -10.5 -28.5t-29.5 -13.5q-4 0 -8 1.5t-8 2.5q-34 12 -74.5 19.5t-86.5 7.5q-76 0 -127 -29t-51 -85q0 -37 23 -59t61 -35t83 -23.5t90 -23.5t83 -34.5t61 -57t23 -92.5q0 -56 -31.5 -100.5t-89 -69.5t-135.5 -25z
M289 739q-14 0 -23 6t-17 14l-68 70q-8 8 -8 19q-1 11 8 20.5t22 9.5q11 0 18 -7l87 -74l87 74q7 7 18 7q13 0 22 -9.5t8 -20.5q0 -11 -8 -19l-68 -70q-7 -8 -16.5 -14t-23.5 -6h-38z" />
    <glyph glyph-name="scaron" unicode="&#x161;" horiz-adv-x="480" 
d="M244 -10q-55 0 -99.5 12t-82.5 33q-17 12 -17 33q0 15 11 27.5t28 12.5q9 0 18 -4q27 -12 59.5 -21t76.5 -9q58 0 84.5 18.5t26.5 52.5q0 22 -21.5 34t-56 20.5t-72.5 18t-72.5 26t-56 45t-21.5 73.5q0 68 49 113t146 45q41 0 77.5 -7t67.5 -18q14 -4 21.5 -15.5
t7.5 -22.5q0 -16 -11.5 -28t-28.5 -12q-4 0 -7 0.5t-6 1.5q-24 8 -52.5 13t-61.5 5q-55 0 -85 -20t-30 -50q0 -26 21.5 -40t56 -22.5t73 -17.5t73 -25.5t56 -45.5t21.5 -78q0 -61 -48.5 -104.5t-144.5 -43.5zM218 567q-14 0 -23 6t-17 14l-68 70q-8 8 -8 19q-1 11 8 20.5
t22 9.5q11 0 18 -7l87 -74l87 74q7 7 18 7q13 0 22 -9.5t8 -20.5q0 -11 -8 -19l-68 -70q-7 -8 -16.5 -14t-23.5 -6h-38z" />
    <glyph glyph-name="uni0162" unicode="&#x162;" horiz-adv-x="609" 
d="M304 -5q-19 0 -32 13t-13 32v573h-204q-18 0 -30 12t-12 30t12 30.5t30 12.5h498q18 0 30.5 -12.5t12.5 -30.5t-12.5 -30t-30.5 -12h-203v-573q0 -19 -13.5 -32t-32.5 -13zM292 -221q-16 0 -40 5t-50 21q-4 2 -7.5 7t-3.5 10q0 8 4.5 14t14.5 6q3 0 6 -1t4 -2
q17 -9 31.5 -13t27.5 -4q24 0 40.5 10t16.5 36q0 15 -10.5 23t-25.5 8q-10 0 -20 -2t-24 -9q-1 -1 -4 -2t-6 -1q-7 0 -12.5 4.5t-5.5 11.5q0 5 1.5 8.5t2.5 5.5l64 102h42l-46 -80q16 4 34 4q34 0 55.5 -19t21.5 -51q0 -46 -29 -69t-82 -23z" />
    <glyph glyph-name="uni0163" unicode="&#x163;" horiz-adv-x="382" 
d="M255 -10q-18 0 -42.5 3.5t-48 16t-39.5 39.5t-16 73v310h-71q-19 0 -19 19q0 10 9 17l136 133q2 2 6.5 5.5t10.5 3.5q8 0 13.5 -6t5.5 -14v-80h113q17 0 28 -11t11 -28q0 -16 -11 -27.5t-28 -11.5h-113v-302q0 -29 11 -42t26.5 -15.5t27.5 -2.5q24 0 35.5 4.5t24.5 4.5
q14 0 25 -10t11 -26q0 -23 -23 -35q-18 -8 -38.5 -13t-44.5 -5zM205 -221q-16 0 -40 5t-50 21q-4 2 -7.5 7t-3.5 10q0 8 4.5 14t14.5 6q3 0 6 -1t4 -2q17 -9 31.5 -13t27.5 -4q24 0 40.5 10t16.5 36q0 15 -10.5 23t-25.5 8q-10 0 -20 -2t-24 -9q-1 -1 -4 -2t-6 -1
q-7 0 -12.5 4.5t-5.5 11.5q0 5 1.5 8.5t2.5 5.5l64 102h42l-46 -80q16 4 34 4q34 0 55.5 -19t21.5 -51q0 -46 -29 -69t-82 -23z" />
    <glyph glyph-name="Tcaron" unicode="&#x164;" horiz-adv-x="609" 
d="M304 -5q-19 0 -32 13t-13 32v573h-204q-18 0 -30 12t-12 30t12 30.5t30 12.5h498q18 0 30.5 -12.5t12.5 -30.5t-12.5 -30t-30.5 -12h-203v-573q0 -19 -13.5 -32t-32.5 -13zM286 739q-14 0 -23 6t-17 14l-68 70q-8 8 -8 19q-1 11 8 20.5t22 9.5q11 0 18 -7l87 -74l87 74
q7 7 18 7q13 0 22 -9.5t8 -20.5q0 -11 -8 -19l-68 -70q-7 -8 -16.5 -14t-23.5 -6h-38z" />
    <glyph glyph-name="tcaron" unicode="&#x165;" horiz-adv-x="382" 
d="M255 -10q-18 0 -42.5 3.5t-48 16t-39.5 39.5t-16 73v310h-71q-19 0 -19 19q0 10 9 17l136 133q2 2 6.5 5.5t10.5 3.5q8 0 13.5 -6t5.5 -14v-80h113q17 0 28 -11t11 -28q0 -16 -11 -27.5t-28 -11.5h-113v-302q0 -29 11 -42t26.5 -15.5t27.5 -2.5q24 0 35.5 4.5t24.5 4.5
q14 0 25 -10t11 -26q0 -23 -23 -35q-18 -8 -38.5 -13t-44.5 -5zM259 554q-7 0 -13 6t-6 16q0 7 4 11t9 8q11 8 22 19t11 29q-20 0 -33 12.5t-13 31.5q0 20 13.5 34t33.5 14q21 0 33.5 -14.5t12.5 -34.5v-31q0 -32 -15 -53.5t-43 -41.5q-6 -6 -16 -6z" />
    <glyph glyph-name="Tbar" unicode="&#x166;" horiz-adv-x="609" 
d="M304 -5q-19 0 -32 13t-13 32v273h-115q-14 0 -24.5 9.5t-10.5 25.5t10.5 26t24.5 10h115v229h-204q-18 0 -30 12t-12 30t12 30.5t30 12.5h498q18 0 30.5 -12.5t12.5 -30.5t-12.5 -30t-30.5 -12h-203v-229h114q14 0 25 -10t11 -26t-11 -25.5t-25 -9.5h-114v-273
q0 -19 -13.5 -32t-32.5 -13z" />
    <glyph glyph-name="tbar" unicode="&#x167;" horiz-adv-x="392" 
d="M260 -10q-18 0 -42.5 3.5t-48 16t-39.5 39.5t-16 73v125h-47q-14 0 -23.5 9.5t-9.5 23.5t9.5 24t23.5 10h47v118h-71q-19 0 -19 19q0 10 9 17l136 133q2 2 6.5 5.5t10.5 3.5q8 0 13.5 -6t5.5 -14v-80h113q17 0 28 -11t11 -28q0 -16 -11 -27.5t-28 -11.5h-113v-118h108
q14 0 24 -10t10 -24t-10 -23.5t-24 -9.5h-108v-117q0 -29 11 -42t26.5 -15.5t27.5 -2.5q24 0 35.5 4.5t24.5 4.5q14 0 25 -10t11 -26q0 -23 -23 -35q-18 -8 -38.5 -13t-44.5 -5z" />
    <glyph glyph-name="Utilde" unicode="&#x168;" horiz-adv-x="758" 
d="M379 -10q-50 0 -101 16t-93 49.5t-67.5 85t-25.5 121.5v395q0 19 13 32.5t32 13.5t32.5 -13.5t13.5 -32.5v-398q0 -62 28.5 -103.5t73.5 -62t94 -20.5t94 20.5t73.5 62t28.5 103.5v398q0 19 13 32.5t32 13.5t32.5 -13.5t13.5 -32.5v-395q0 -70 -25.5 -121.5t-67.5 -85
t-93 -49.5t-101 -16zM241 743q-9 0 -16 6.5t-7 16.5q0 20 10 42t29 37.5t45 15.5q29 0 54 -11.5t49 -23.5t51 -12q16 0 24.5 7t12.5 20q3 8 8.5 14.5t16.5 6.5t16.5 -6.5t6.5 -15.5q0 -21 -10.5 -43t-29.5 -37t-44 -15q-30 0 -55 12t-49 24t-50 12q-15 0 -24 -9t-15 -23
q-2 -7 -7.5 -12.5t-15.5 -5.5z" />
    <glyph glyph-name="utilde" unicode="&#x169;" horiz-adv-x="609" 
d="M253 -10q-57 0 -97 26.5t-61 71.5t-21 98v284q0 19 13.5 32t32.5 13t32 -13t13 -32v-274q0 -57 26 -89.5t84 -32.5q54 0 94 29.5t70 66.5v300q0 19 13.5 32t32.5 13t32 -13t13 -32v-429q0 -19 -13 -32.5t-32 -13.5t-32.5 13.5t-13.5 32.5v41q-31 -34 -75 -63t-111 -29z
M167 571q-9 0 -16 6.5t-7 16.5q0 20 10 42t29 37.5t45 15.5q29 0 54 -11.5t49 -23.5t51 -12q16 0 24.5 7t12.5 20q3 8 8.5 14.5t16.5 6.5t16.5 -6.5t6.5 -15.5q0 -21 -10.5 -43t-29.5 -37t-44 -15q-30 0 -55 12t-49 24t-50 12q-15 0 -24 -9t-15 -23q-2 -7 -7.5 -12.5
t-15.5 -5.5z" />
    <glyph glyph-name="Umacron" unicode="&#x16a;" horiz-adv-x="758" 
d="M379 -10q-50 0 -101 16t-93 49.5t-67.5 85t-25.5 121.5v395q0 19 13 32.5t32 13.5t32.5 -13.5t13.5 -32.5v-398q0 -62 28.5 -103.5t73.5 -62t94 -20.5t94 20.5t73.5 62t28.5 103.5v398q0 19 13 32.5t32 13.5t32.5 -13.5t13.5 -32.5v-395q0 -70 -25.5 -121.5t-67.5 -85
t-93 -49.5t-101 -16zM262 760q-13 0 -21.5 8.5t-8.5 21.5t8.5 21.5t21.5 8.5h234q13 0 21.5 -8.5t8.5 -21.5t-8.5 -21.5t-21.5 -8.5h-234z" />
    <glyph glyph-name="umacron" unicode="&#x16b;" horiz-adv-x="609" 
d="M253 -10q-57 0 -97 26.5t-61 71.5t-21 98v284q0 19 13.5 32t32.5 13t32 -13t13 -32v-274q0 -57 26 -89.5t84 -32.5q54 0 94 29.5t70 66.5v300q0 19 13.5 32t32.5 13t32 -13t13 -32v-429q0 -19 -13 -32.5t-32 -13.5t-32.5 13.5t-13.5 32.5v41q-31 -34 -75 -63t-111 -29z
M188 588q-13 0 -21.5 8.5t-8.5 21.5t8.5 21.5t21.5 8.5h234q13 0 21.5 -8.5t8.5 -21.5t-8.5 -21.5t-21.5 -8.5h-234z" />
    <glyph glyph-name="Ubreve" unicode="&#x16c;" horiz-adv-x="758" 
d="M379 -10q-50 0 -101 16t-93 49.5t-67.5 85t-25.5 121.5v395q0 19 13 32.5t32 13.5t32.5 -13.5t13.5 -32.5v-398q0 -62 28.5 -103.5t73.5 -62t94 -20.5t94 20.5t73.5 62t28.5 103.5v398q0 19 13 32.5t32 13.5t32.5 -13.5t13.5 -32.5v-395q0 -70 -25.5 -121.5t-67.5 -85
t-93 -49.5t-101 -16zM379 748q-48 0 -84.5 22t-55.5 59q-3 6 -3 14q0 13 8.5 22t22.5 9q19 0 28 -19q11 -22 33 -35.5t51 -13.5t51.5 13.5t32.5 35.5q9 19 28 19q14 0 22.5 -9t8.5 -22q0 -8 -3 -14q-19 -37 -55.5 -59t-84.5 -22z" />
    <glyph glyph-name="ubreve" unicode="&#x16d;" horiz-adv-x="609" 
d="M253 -10q-57 0 -97 26.5t-61 71.5t-21 98v284q0 19 13.5 32t32.5 13t32 -13t13 -32v-274q0 -57 26 -89.5t84 -32.5q54 0 94 29.5t70 66.5v300q0 19 13.5 32t32.5 13t32 -13t13 -32v-429q0 -19 -13 -32.5t-32 -13.5t-32.5 13.5t-13.5 32.5v41q-31 -34 -75 -63t-111 -29z
M305 576q-48 0 -85.5 22t-54.5 59q-3 6 -3 14q0 13 8.5 22t22.5 9q19 0 28 -19q11 -22 33 -35.5t51 -13.5t51.5 13.5t32.5 35.5q9 19 28 19q14 0 22.5 -9t8.5 -22q0 -8 -3 -14q-17 -37 -54.5 -59t-85.5 -22z" />
    <glyph glyph-name="Uring" unicode="&#x16e;" horiz-adv-x="758" 
d="M379 -10q-50 0 -101 16t-93 49.5t-67.5 85t-25.5 121.5v395q0 19 13 32.5t32 13.5t32.5 -13.5t13.5 -32.5v-398q0 -62 28.5 -103.5t73.5 -62t94 -20.5t94 20.5t73.5 62t28.5 103.5v398q0 19 13 32.5t32 13.5t32.5 -13.5t13.5 -32.5v-395q0 -70 -25.5 -121.5t-67.5 -85
t-93 -49.5t-101 -16zM379 723q-39 0 -66.5 27.5t-27.5 66.5t27.5 66.5t66.5 27.5t66.5 -27.5t27.5 -66.5t-27.5 -66.5t-66.5 -27.5zM379 768q20 0 34.5 14.5t14.5 34.5t-14.5 34.5t-34.5 14.5t-34.5 -14.5t-14.5 -34.5t14.5 -34.5t34.5 -14.5z" />
    <glyph glyph-name="uring" unicode="&#x16f;" horiz-adv-x="609" 
d="M253 -10q-57 0 -97 26.5t-61 71.5t-21 98v284q0 19 13.5 32t32.5 13t32 -13t13 -32v-274q0 -57 26 -89.5t84 -32.5q54 0 94 29.5t70 66.5v300q0 19 13.5 32t32.5 13t32 -13t13 -32v-429q0 -19 -13 -32.5t-32 -13.5t-32.5 13.5t-13.5 32.5v41q-31 -34 -75 -63t-111 -29z
M305 551q-39 0 -66.5 27.5t-27.5 66.5t27.5 66.5t66.5 27.5t66.5 -27.5t27.5 -66.5t-27.5 -66.5t-66.5 -27.5zM305 596q20 0 34.5 14.5t14.5 34.5t-14.5 34.5t-34.5 14.5t-34.5 -14.5t-14.5 -34.5t14.5 -34.5t34.5 -14.5z" />
    <glyph glyph-name="Uhungarumlaut" unicode="&#x170;" horiz-adv-x="758" 
d="M379 -10q-50 0 -101 16t-93 49.5t-67.5 85t-25.5 121.5v395q0 19 13 32.5t32 13.5t32.5 -13.5t13.5 -32.5v-398q0 -62 28.5 -103.5t73.5 -62t94 -20.5t94 20.5t73.5 62t28.5 103.5v398q0 19 13 32.5t32 13.5t32.5 -13.5t13.5 -32.5v-395q0 -70 -25.5 -121.5t-67.5 -85
t-93 -49.5t-101 -16zM436 739q-10 0 -18.5 7t-8.5 18q0 5 1 8l27 90q5 16 16 23.5t22 7.5q14 0 24.5 -8.5t10.5 -24.5q0 -12 -7 -25l-41 -79q-8 -17 -26 -17zM320 739q-10 0 -18.5 7t-8.5 18q0 5 1 8l27 90q5 16 16 23.5t22 7.5q14 0 24.5 -8.5t10.5 -24.5q0 -12 -7 -25
l-41 -79q-8 -17 -26 -17z" />
    <glyph glyph-name="uhungarumlaut" unicode="&#x171;" horiz-adv-x="609" 
d="M253 -10q-57 0 -97 26.5t-61 71.5t-21 98v284q0 19 13.5 32t32.5 13t32 -13t13 -32v-274q0 -57 26 -89.5t84 -32.5q54 0 94 29.5t70 66.5v300q0 19 13.5 32t32.5 13t32 -13t13 -32v-429q0 -19 -13 -32.5t-32 -13.5t-32.5 13.5t-13.5 32.5v41q-31 -34 -75 -63t-111 -29z
M362 567q-10 0 -18.5 7t-8.5 18q0 5 1 8l27 90q5 16 16 23.5t22 7.5q14 0 24.5 -8.5t10.5 -24.5q0 -12 -7 -25l-41 -79q-8 -17 -26 -17zM246 567q-10 0 -18.5 7t-8.5 18q0 5 1 8l27 90q5 16 16 23.5t22 7.5q14 0 24.5 -8.5t10.5 -24.5q0 -12 -7 -25l-41 -79q-8 -17 -26 -17z
" />
    <glyph glyph-name="Uogonek" unicode="&#x172;" horiz-adv-x="758" 
d="M398 -203q-36 0 -64.5 22t-28.5 62q0 38 20.5 64t48.5 45q-50 1 -100 17.5t-91 49.5t-66 84t-25 121v395q0 19 13 32.5t32 13.5t32.5 -13.5t13.5 -32.5v-398q0 -62 28.5 -103.5t73.5 -62t94 -20.5t94 20.5t73.5 62t28.5 103.5v398q0 19 13 32.5t32 13.5t32.5 -13.5
t13.5 -32.5v-395q0 -67 -23.5 -117t-62.5 -83t-86 -51q-26 -9 -53 -26.5t-45 -39.5t-18 -45q1 -22 12.5 -34.5t38.5 -12.5q11 0 19.5 2t15.5 4q6 2 9 2q22 0 22 -22q0 -10 -11 -18q-16 -11 -37 -17.5t-49 -6.5z" />
    <glyph glyph-name="uogonek" unicode="&#x173;" horiz-adv-x="609" 
d="M425 -203q-36 0 -64.5 22t-28.5 62q0 47 32 79.5t75 54.5v67q-31 -34 -75 -63t-111 -29q-57 0 -97 26.5t-61 71.5t-21 98v284q0 19 13.5 32t32.5 13t32 -13t13 -32v-274q0 -57 26 -89.5t84 -32.5q54 0 94 29.5t70 66.5v300q0 19 13.5 32t32.5 13t32 -13t13 -32v-430
q0 -31 -34 -44q-44 -17 -67.5 -43.5t-23.5 -52.5q0 -22 12 -34.5t39 -12.5q11 0 19.5 2t15.5 4q6 2 9 2q22 0 22 -22q0 -10 -11 -18q-16 -11 -37 -17.5t-49 -6.5z" />
    <glyph glyph-name="Wcircumflex" unicode="&#x174;" horiz-adv-x="1011" 
d="M286 -5q-19 0 -35 11t-24 34l-196 602q-3 11 -3 17q-1 19 12 31.5t32 12.5q17 0 29 -10t16 -26l168 -552l169 550q5 17 19.5 27.5t32.5 10.5t32.5 -10.5t19.5 -27.5l169 -550l168 552q5 16 17 26t28 10q20 0 33 -12.5t11 -31.5q0 -6 -3 -17l-196 -602q-8 -23 -24 -34
t-35 -11q-20 0 -36.5 13t-22.5 32l-161 510l-161 -510q-6 -19 -22.5 -32t-36.5 -13zM401 738q-13 0 -22 9.5t-8 20.5q0 11 8 19l68 70q8 8 17 14t23 6h38q14 0 23.5 -6t16.5 -14l68 -70q8 -8 8 -19q1 -11 -8 -20.5t-22 -9.5q-11 0 -18 7l-87 74l-87 -74q-7 -7 -18 -7z" />
    <glyph glyph-name="wcircumflex" unicode="&#x175;" horiz-adv-x="792" 
d="M231 -5q-20 0 -36 12.5t-22 29.5l-142 416q-3 9 -3 17q0 19 13 32t32 13q14 0 25.5 -7t15.5 -20l117 -385l116 376q5 16 18.5 26t30.5 10t31 -10t18 -26l116 -376l117 385q4 13 16 20t25 7q19 0 32 -13t13 -32q0 -8 -3 -17l-142 -416q-6 -17 -22 -29.5t-36 -12.5
t-36 12.5t-23 30.5l-106 331l-106 -331q-7 -18 -23 -30.5t-36 -12.5zM291 566q-13 0 -22 9.5t-8 20.5q0 11 8 19l68 70q8 8 17 14t23 6h38q14 0 23.5 -6t16.5 -14l68 -70q8 -8 8 -19q1 -11 -8 -20.5t-22 -9.5q-11 0 -18 7l-87 74l-87 -74q-7 -7 -18 -7z" />
    <glyph glyph-name="Ycircumflex" unicode="&#x176;" horiz-adv-x="639" 
d="M320 -5q-19 0 -32.5 13t-13.5 32v255l-239 335q-8 13 -8 27q0 19 12.5 32.5t31.5 13.5q25 0 40 -23l209 -304l209 304q15 23 40 23q20 0 32.5 -13.5t11.5 -32.5q0 -14 -8 -27l-240 -335v-255q0 -19 -13 -32t-32 -13zM215 738q-13 0 -22 9.5t-8 20.5q0 11 8 19l68 70
q8 8 17 14t23 6h38q14 0 23.5 -6t16.5 -14l68 -70q8 -8 8 -19q1 -11 -8 -20.5t-22 -9.5q-11 0 -18 7l-87 74l-87 -74q-7 -7 -18 -7z" />
    <glyph glyph-name="ycircumflex" unicode="&#x177;" horiz-adv-x="537" 
d="M193 -235q-18 0 -30.5 13t-12.5 31q0 9 3 16l65 167l-188 458q-1 4 -2.5 9t-1.5 10q0 19 13 32.5t32 13.5q14 0 25.5 -8t16.5 -20l154 -382l157 380q6 14 16.5 22t25.5 8q19 0 32 -13.5t13 -32.5q0 -9 -3 -17l-273 -656q-6 -13 -16 -22t-26 -9zM164 566q-13 0 -22 9.5
t-8 20.5q0 11 8 19l68 70q8 8 17 14t23 6h38q14 0 23.5 -6t16.5 -14l68 -70q8 -8 8 -19q1 -11 -8 -20.5t-22 -9.5q-11 0 -18 7l-87 74l-87 -74q-7 -7 -18 -7z" />
    <glyph glyph-name="Ydieresis" unicode="&#x178;" horiz-adv-x="639" 
d="M320 -5q-19 0 -32.5 13t-13.5 32v255l-239 335q-8 13 -8 27q0 19 12.5 32.5t31.5 13.5q25 0 40 -23l209 -304l209 304q15 23 40 23q20 0 32.5 -13.5t11.5 -32.5q0 -14 -8 -27l-240 -335v-255q0 -19 -13 -32t-32 -13zM404 747q-21 0 -36 15t-15 36t15 36t36 15t36 -15
t15 -36t-15 -36t-36 -15zM236 747q-21 0 -36 15t-15 36t15 36t36 15t36 -15t15 -36t-15 -36t-36 -15z" />
    <glyph glyph-name="Zacute" unicode="&#x179;" horiz-adv-x="638" 
d="M105 0q-24 0 -41 17t-17 41q0 22 12 37l418 516h-385q-18 0 -30.5 12.5t-12.5 30.5t12.5 31t30.5 13h434q29 0 45 -18.5t16 -43.5q0 -22 -16 -40l-413 -511h392q18 0 30.5 -12.5t12.5 -30.5t-12.5 -30t-30.5 -12h-445zM319 739q-12 0 -19.5 7.5t-7.5 19.5q0 6 3 11.5
t4 7.5l51 90q5 8 12.5 13.5t20.5 5.5q17 0 27 -10t10 -27q0 -14 -10 -25l-69 -82q-9 -11 -22 -11z" />
    <glyph glyph-name="zacute" unicode="&#x17a;" horiz-adv-x="498" 
d="M103 0q-26 0 -44.5 13.5t-18.5 39.5q0 23 16 41l288 331h-253q-18 0 -30 12t-12 30t12 30.5t30 12.5h303q26 0 42 -15.5t16 -41.5q0 -23 -14 -40l-280 -328h257q18 0 30.5 -12.5t12.5 -30.5t-12.5 -30t-30.5 -12h-312zM251 567q-12 0 -19.5 7.5t-7.5 19.5q0 6 3 11.5
t4 7.5l51 90q5 8 12.5 13.5t20.5 5.5q17 0 27 -10t10 -27q0 -14 -10 -25l-69 -82q-9 -11 -22 -11z" />
    <glyph glyph-name="Zdotaccent" unicode="&#x17b;" horiz-adv-x="638" 
d="M105 0q-24 0 -41 17t-17 41q0 22 12 37l418 516h-385q-18 0 -30.5 12.5t-12.5 30.5t12.5 31t30.5 13h434q29 0 45 -18.5t16 -43.5q0 -22 -16 -40l-413 -511h392q18 0 30.5 -12.5t12.5 -30.5t-12.5 -30t-30.5 -12h-445zM319 747q-21 0 -36 15t-15 36t15 36t36 15t36 -15
t15 -36t-15 -36t-36 -15z" />
    <glyph glyph-name="zdotaccent" unicode="&#x17c;" horiz-adv-x="498" 
d="M103 0q-26 0 -44.5 13.5t-18.5 39.5q0 23 16 41l288 331h-253q-18 0 -30 12t-12 30t12 30.5t30 12.5h303q26 0 42 -15.5t16 -41.5q0 -23 -14 -40l-280 -328h257q18 0 30.5 -12.5t12.5 -30.5t-12.5 -30t-30.5 -12h-312zM251 575q-21 0 -36 15t-15 36t15 36t36 15t36 -15
t15 -36t-15 -36t-36 -15z" />
    <glyph glyph-name="Zcaron" unicode="&#x17d;" horiz-adv-x="638" 
d="M105 0q-24 0 -41 17t-17 41q0 22 12 37l418 516h-385q-18 0 -30.5 12.5t-12.5 30.5t12.5 31t30.5 13h434q29 0 45 -18.5t16 -43.5q0 -22 -16 -40l-413 -511h392q18 0 30.5 -12.5t12.5 -30.5t-12.5 -30t-30.5 -12h-445zM300 739q-14 0 -23 6t-17 14l-68 70q-8 8 -8 19
q-1 11 8 20.5t22 9.5q11 0 18 -7l87 -74l87 74q7 7 18 7q13 0 22 -9.5t8 -20.5q0 -11 -8 -19l-68 -70q-7 -8 -16.5 -14t-23.5 -6h-38z" />
    <glyph glyph-name="zcaron" unicode="&#x17e;" horiz-adv-x="498" 
d="M103 0q-26 0 -44.5 13.5t-18.5 39.5q0 23 16 41l288 331h-253q-18 0 -30 12t-12 30t12 30.5t30 12.5h303q26 0 42 -15.5t16 -41.5q0 -23 -14 -40l-280 -328h257q18 0 30.5 -12.5t12.5 -30.5t-12.5 -30t-30.5 -12h-312zM232 567q-14 0 -23 6t-17 14l-68 70q-8 8 -8 19
q-1 11 8 20.5t22 9.5q11 0 18 -7l87 -74l87 74q7 7 18 7q13 0 22 -9.5t8 -20.5q0 -11 -8 -19l-68 -70q-7 -8 -16.5 -14t-23.5 -6h-38z" />
    <glyph glyph-name="longs" unicode="&#x17f;" horiz-adv-x="287" 
d="M162 -5q-19 0 -32 13t-13 32v392h-59q-16 0 -27.5 11.5t-11.5 27.5q0 17 11.5 28t27.5 11h59v58q0 63 22.5 101t57.5 54.5t70 16.5q25 0 47 -5.5t40 -14.5q9 -4 16 -13.5t7 -21.5q0 -14 -10.5 -26t-26.5 -12q-12 0 -24 3t-26 3q-37 0 -59.5 -17.5t-22.5 -70.5v-525
q0 -19 -13 -32t-33 -13z" />
    <glyph glyph-name="uni018F" unicode="&#x18f;" horiz-adv-x="792" 
d="M396 -10q-102 0 -178.5 44t-119.5 123t-43 182q0 23 14 37.5t33 14.5h542q-8 66 -40.5 118t-89.5 82t-138 30q-64 0 -112 -12.5t-89 -34.5q-8 -4 -18 -4q-19 0 -30 12t-10 28q1 14 6.5 22.5t15.5 13.5q47 27 106.5 44.5t138.5 17.5q101 0 181 -43.5t126 -123.5t46 -192
q-2 -105 -45 -186t-118.5 -127t-177.5 -46zM396 75q71 0 123.5 30.5t84.5 83.5t40 120h-486q4 -69 34 -121.5t82 -82.5t122 -30z" />
    <glyph glyph-name="florin" unicode="&#x192;" horiz-adv-x="403" 
d="M-12 -156q-17 0 -29 12t-12 29t12 29.5t29 12.5h7q38 0 62.5 17.5t31.5 70.5l48 345h-72q-15 0 -25.5 10.5t-10.5 25.5t10.5 26t25.5 11h83l20 145q9 63 37 100t65.5 52.5t72.5 15.5q23 0 42.5 -2.5t35.5 -10.5q10 -4 16.5 -14t6.5 -22q0 -17 -11.5 -28.5t-28.5 -11.5
q-9 0 -21 3t-30 3q-37 0 -61.5 -17.5t-32.5 -70.5l-20 -142h110q15 0 26 -11t11 -26q0 -16 -10 -26t-27 -10h-120l-49 -348q-9 -63 -37 -99.5t-64.5 -52.5t-72.5 -16h-18z" />
    <glyph glyph-name="Ohorn" unicode="&#x1a0;" horiz-adv-x="811" 
d="M406 -10q-107 0 -185 46t-121 127t-45 186q2 105 45 186t122.5 127t191.5 46q31 0 55 -3t51 -6t67 -3q52 0 73 19.5t21 53.5q0 17 -3.5 28.5t-3.5 22.5q0 14 10 23.5t23 9.5q23 0 36.5 -26.5t13.5 -73.5q0 -43 -27 -77.5t-96 -44.5q58 -48 90 -120.5t33 -161.5
q-2 -105 -45 -186t-121 -127t-185 -46zM406 75q83 0 141 36.5t88.5 98.5t30.5 139t-30.5 139t-88.5 98.5t-141 36.5t-141 -36.5t-88.5 -98.5t-30.5 -139t30.5 -139t88.5 -98.5t141 -36.5z" />
    <glyph glyph-name="ohorn" unicode="&#x1a1;" horiz-adv-x="608" 
d="M304 -10q-77 0 -135 33.5t-89.5 93t-31.5 138.5t31.5 138.5t89.5 93t135 33.5q33 0 59 -5t49 -5q35 0 53.5 18.5t18.5 52.5q0 17 -3.5 28.5t-3.5 22.5q0 14 10 23.5t23 9.5q23 0 36.5 -26.5t13.5 -73.5q0 -36 -17.5 -67.5t-56.5 -47.5q35 -35 54.5 -84.5t19.5 -110.5
q0 -79 -32 -138.5t-89.5 -93t-134.5 -33.5zM304 73q38 0 76 18t63.5 58.5t25.5 106.5t-25.5 106t-63.5 57.5t-76 17.5t-76.5 -17.5t-63.5 -57.5t-25 -106t25 -106.5t63.5 -58.5t76.5 -18z" />
    <glyph glyph-name="Uhorn" unicode="&#x1af;" horiz-adv-x="763" 
d="M379 -10q-50 0 -101 16t-93 49.5t-67.5 85t-25.5 121.5v395q0 19 13 32.5t32 13.5t32.5 -13.5t13.5 -32.5v-398q0 -62 28.5 -103.5t73.5 -62t94 -20.5t94 20.5t73.5 62t28.5 103.5v398q0 19 13 32.5t32 13.5q14 0 26 -2.5t30 -2.5q32 0 49.5 18.5t17.5 52.5
q0 17 -3.5 28.5t-3.5 22.5q0 14 10 23.5t23 9.5q23 0 36.5 -26.5t13.5 -73.5q0 -33 -15 -62t-46 -47t-80 -18h-12v-364q0 -70 -25.5 -121.5t-67.5 -85t-93 -49.5t-101 -16z" />
    <glyph glyph-name="uhorn" unicode="&#x1b0;" horiz-adv-x="619" 
d="M253 -10q-57 0 -97 26.5t-61 71.5t-21 98v284q0 19 13.5 32t32.5 13t32 -13t13 -32v-274q0 -57 26 -89.5t84 -32.5q54 0 94 29.5t70 66.5v300q0 19 13.5 32t32.5 13q14 0 25 -2.5t24 -2.5q26 0 43 18t17 52q0 17 -3.5 29t-3.5 23q0 14 10 23.5t23 9.5q23 0 36.5 -26.5
t13.5 -73.5q0 -33 -14.5 -62t-44 -47t-75.5 -18h-6v-397q0 -19 -13 -32.5t-32 -13.5t-32.5 13.5t-13.5 32.5v41q-31 -34 -75 -63t-111 -29z" />
    <glyph glyph-name="uni01C4" unicode="&#x1c4;" horiz-adv-x="1358" 
d="M142 0q-19 0 -32 13t-13 32v607q0 19 13 32.5t32 13.5h201q90 0 156 -30.5t110 -81t65.5 -112.5t21.5 -125t-21.5 -125t-65.5 -112.5t-110 -81t-156 -30.5h-201zM188 85h144q84 0 145.5 33.5t95 93t33.5 137.5t-33.5 137.5t-95 93t-145.5 33.5h-144v-528zM825 0
q-24 0 -41 17t-17 41q0 22 12 37l418 516h-385q-18 0 -30.5 12.5t-12.5 30.5t12.5 31t30.5 13h434q29 0 45 -18.5t16 -43.5q0 -22 -16 -40l-413 -511h392q18 0 30.5 -12.5t12.5 -30.5t-12.5 -30t-30.5 -12h-445zM1020 739q-14 0 -23 6t-17 14l-68 70q-8 8 -8 19
q-1 11 8 20.5t22 9.5q11 0 18 -7l87 -74l87 74q7 7 18 7q13 0 22 -9.5t8 -20.5q0 -11 -8 -19l-68 -70q-7 -8 -16.5 -14t-23.5 -6h-38z" />
    <glyph glyph-name="uni01C5" unicode="&#x1c5;" horiz-adv-x="1228" 
d="M142 0q-19 0 -32 13t-13 32v607q0 19 13 32.5t32 13.5h201q90 0 156 -30.5t110 -81t65.5 -112.5t21.5 -125t-21.5 -125t-65.5 -112.5t-110 -81t-156 -30.5h-201zM188 85h144q84 0 145.5 33.5t95 93t33.5 137.5t-33.5 137.5t-95 93t-145.5 33.5h-144v-528zM833 0
q-26 0 -44.5 13.5t-18.5 39.5q0 23 16 41l288 331h-253q-18 0 -30 12t-12 30t12 30.5t30 12.5h303q26 0 42 -15.5t16 -41.5q0 -23 -14 -40l-280 -328h257q18 0 30.5 -12.5t12.5 -30.5t-12.5 -30t-30.5 -12h-312zM962 567q-14 0 -23 6t-17 14l-68 70q-8 8 -8 19q-1 11 8 20.5
t22 9.5q11 0 18 -7l87 -74l87 74q7 7 18 7q13 0 22 -9.5t8 -20.5q0 -11 -8 -19l-68 -70q-7 -8 -16.5 -14t-23.5 -6h-38z" />
    <glyph glyph-name="uni01C6" unicode="&#x1c6;" horiz-adv-x="1109" 
d="M290 -10q-60 0 -115.5 31t-91 90t-35.5 144t35.5 144t91 90t115.5 31q53 0 95 -20t76 -56v245q0 20 13.5 33t32.5 13t32 -13t13 -33v-649q0 -19 -13 -32t-32 -13t-32.5 13t-13.5 32v26q-34 -36 -76 -56t-95 -20zM303 75q49 0 89 21.5t69 53.5v210q-29 32 -69 53.5
t-89 21.5q-71 0 -117.5 -45.5t-46.5 -134.5q0 -88 46.5 -134t117.5 -46zM714 0q-26 0 -44.5 13.5t-18.5 39.5q0 23 16 41l288 331h-253q-18 0 -30 12t-12 30t12 30.5t30 12.5h303q26 0 42 -15.5t16 -41.5q0 -23 -14 -40l-280 -328h257q18 0 30.5 -12.5t12.5 -30.5t-12.5 -30
t-30.5 -12h-312zM843 567q-14 0 -23 6t-17 14l-68 70q-8 8 -8 19q-1 11 8 20.5t22 9.5q11 0 18 -7l87 -74l87 74q7 7 18 7q13 0 22 -9.5t8 -20.5q0 -11 -8 -19l-68 -70q-7 -8 -16.5 -14t-23.5 -6h-38z" />
    <glyph glyph-name="uni01C7" unicode="&#x1c7;" horiz-adv-x="1042" 
d="M160 0q-26 0 -44.5 18.5t-18.5 44.5v594q0 19 13 32.5t32 13.5t32.5 -13.5t13.5 -32.5v-566h327q19 0 32.5 -13.5t13.5 -32.5t-13.5 -32t-32.5 -13h-355zM744 -10q-38 0 -71.5 9t-61.5 25q-9 5 -15.5 14t-6.5 23q0 16 10.5 28.5t27.5 12.5q10 0 18 -4q20 -10 43.5 -16
t49.5 -6q30 0 57.5 11t45.5 42.5t18 94.5v433q0 19 13 32.5t32 13.5t32.5 -13.5t13.5 -32.5v-427q0 -72 -17.5 -118.5t-47 -73t-66.5 -37.5t-75 -11z" />
    <glyph glyph-name="uni01C8" unicode="&#x1c8;" horiz-adv-x="830" 
d="M160 0q-26 0 -44.5 18.5t-18.5 44.5v594q0 19 13 32.5t32 13.5t32.5 -13.5t13.5 -32.5v-566h327q19 0 32.5 -13.5t13.5 -32.5t-13.5 -32t-32.5 -13h-355zM703 614q-21 0 -36 15t-15 36v4q0 21 15 36t36 15h6q21 0 36 -15t15 -36v-4q0 -21 -15 -36t-36 -15h-6zM620 -240
q-36 0 -63 9q-26 8 -26 36q0 15 11 26.5t27 11.5q7 0 14 -1.5t16 -1.5q26 0 43.5 9.5t17.5 49.5v569q0 20 13 33t32 13q20 0 33 -13t13 -33v-571q0 -58 -29.5 -97.5t-101.5 -39.5z" />
    <glyph glyph-name="uni01C9" unicode="&#x1c9;" horiz-adv-x="503" 
d="M124 -5q-19 0 -32 13t-13 32v649q0 20 13 33t32 13q20 0 33 -13t13 -33v-649q0 -19 -13 -32t-33 -13zM376 614q-21 0 -36 15t-15 36v4q0 21 15 36t36 15h6q21 0 36 -15t15 -36v-4q0 -21 -15 -36t-36 -15h-6zM293 -240q-36 0 -63 9q-26 8 -26 36q0 15 11 26.5t27 11.5
q7 0 14 -1.5t16 -1.5q26 0 43.5 9.5t17.5 49.5v569q0 20 13 33t32 13q20 0 33 -13t13 -33v-571q0 -58 -29.5 -97.5t-101.5 -39.5z" />
    <glyph glyph-name="uni01CA" unicode="&#x1ca;" horiz-adv-x="1269" 
d="M142 -5q-19 0 -32 13t-13 32v597q0 27 19 46.5t46 19.5h13q17 0 31 -8t24 -22l385 -556v540q0 19 13 32.5t32 13.5t32.5 -13.5t13.5 -32.5v-597q0 -27 -19.5 -46t-46.5 -19h-12q-16 0 -30 7.5t-23 19.5l-387 559v-541q0 -19 -13.5 -32t-32.5 -13zM971 -10q-38 0 -71.5 9
t-61.5 25q-9 5 -15.5 14t-6.5 23q0 16 10.5 28.5t27.5 12.5q10 0 18 -4q20 -10 43.5 -16t49.5 -6q30 0 57.5 11t45.5 42.5t18 94.5v433q0 19 13 32.5t32 13.5t32.5 -13.5t13.5 -32.5v-427q0 -72 -17.5 -118.5t-47 -73t-66.5 -37.5t-75 -11z" />
    <glyph glyph-name="uni01CB" unicode="&#x1cb;" horiz-adv-x="1047" 
d="M142 -5q-19 0 -32 13t-13 32v597q0 27 19 46.5t46 19.5h13q17 0 31 -8t24 -22l385 -556v540q0 19 13 32.5t32 13.5t32.5 -13.5t13.5 -32.5v-597q0 -27 -19.5 -46t-46.5 -19h-12q-16 0 -30 7.5t-23 19.5l-387 559v-541q0 -19 -13.5 -32t-32.5 -13zM920 614q-21 0 -36 15
t-15 36v4q0 21 15 36t36 15h6q21 0 36 -15t15 -36v-4q0 -21 -15 -36t-36 -15h-6zM837 -240q-36 0 -63 9q-26 8 -26 36q0 15 11 26.5t27 11.5q7 0 14 -1.5t16 -1.5q26 0 43.5 9.5t17.5 49.5v569q0 20 13 33t32 13q20 0 33 -13t13 -33v-571q0 -58 -29.5 -97.5t-101.5 -39.5z
" />
    <glyph glyph-name="uni01CC" unicode="&#x1cc;" horiz-adv-x="863" 
d="M124 -5q-19 0 -32 13t-13 32v429q0 20 13 33t32 13t32.5 -13t13.5 -33v-41q32 35 75.5 63.5t110.5 28.5q57 0 97 -26.5t61 -71t21 -98.5v-284q0 -19 -13.5 -32t-32.5 -13t-32 13t-13 32v274q0 57 -25.5 89.5t-84.5 32.5q-54 0 -94 -29t-70 -67v-300q0 -19 -13.5 -32
t-32.5 -13zM736 614q-21 0 -36 15t-15 36v4q0 21 15 36t36 15h6q21 0 36 -15t15 -36v-4q0 -21 -15 -36t-36 -15h-6zM653 -240q-36 0 -63 9q-26 8 -26 36q0 15 11 26.5t27 11.5q7 0 14 -1.5t16 -1.5q26 0 43.5 9.5t17.5 49.5v569q0 20 13 33t32 13q20 0 33 -13t13 -33v-571
q0 -58 -29.5 -97.5t-101.5 -39.5z" />
    <glyph glyph-name="Gcaron" unicode="&#x1e6;" horiz-adv-x="757" 
d="M406 -10q-105 0 -184 46t-123 126.5t-44 185.5q0 81 27 147.5t74.5 114t110.5 73t136 25.5q85 0 143.5 -21t105.5 -51q7 -4 13.5 -13t6.5 -23q0 -16 -11 -28.5t-31 -12.5q-11 0 -21 5q-44 26 -91 41t-105 15q-75 0 -135.5 -31.5t-96 -92t-35.5 -148.5q0 -77 32 -138.5
t93 -97.5t147 -36q53 0 97 12.5t78 31.5v181h-165q-17 0 -29 12t-12 29t12 29t29 12h197q20 0 34 -14t14 -34v-227q0 -21 -10.5 -37.5t-27.5 -24.5q-49 -25 -106.5 -40.5t-122.5 -15.5zM387 739q-14 0 -23 6t-17 14l-68 70q-8 8 -8 19q-1 11 8 20.5t22 9.5q11 0 18 -7
l87 -74l87 74q7 7 18 7q13 0 22 -9.5t8 -20.5q0 -11 -8 -19l-68 -70q-7 -8 -16.5 -14t-23.5 -6h-38z" />
    <glyph glyph-name="gcaron" unicode="&#x1e7;" horiz-adv-x="631" 
d="M317 -240q-61 0 -120 16t-94 36q-7 5 -12.5 13t-5.5 22q0 15 11.5 28t28.5 13q5 0 9.5 -1t8.5 -3q32 -16 73 -27t92 -11q153 0 153 163v67q-31 -33 -73 -54.5t-98 -21.5q-42 0 -84.5 16t-78 48t-57.5 81t-22 115t22 115t57.5 81t78 48t84.5 16q56 0 98 -21.5t73 -54.5v25
q0 19 13 32.5t32 13.5t32.5 -13.5t13.5 -32.5v-447q0 -126 -61 -194t-174 -68zM309 83q52 0 88 23t64 51v206q-28 29 -64 51.5t-88 22.5q-47 0 -86 -19t-61.5 -58.5t-22.5 -99.5t22.5 -99.5t61.5 -58.5t86 -19zM297 567q-14 0 -23 6t-17 14l-68 70q-8 8 -8 19q-1 11 8 20.5
t22 9.5q11 0 18 -7l87 -74l87 74q7 7 18 7q13 0 22 -9.5t8 -20.5q0 -11 -8 -19l-68 -70q-7 -8 -16.5 -14t-23.5 -6h-38z" />
    <glyph glyph-name="uni01EA" unicode="&#x1ea;" horiz-adv-x="811" 
d="M439 -203q-36 0 -64.5 22t-28.5 62q0 38 20.5 64t48.5 45h-9q-107 0 -185 46t-121 127t-45 186q2 105 45 186t121 127t185 46t185 -46t121 -127t45 -186q-2 -124 -60 -211t-165 -129q-25 -10 -51 -27t-44 -38t-18 -44q0 -22 12 -34.5t39 -12.5q11 0 19.5 2t15.5 4
q6 2 9 2q22 0 22 -22q0 -10 -11 -18q-16 -11 -37 -17.5t-49 -6.5zM406 75q83 0 141 36.5t88.5 98.5t30.5 139t-30.5 139t-88.5 98.5t-141 36.5t-141 -36.5t-88.5 -98.5t-30.5 -139t30.5 -139t88.5 -98.5t141 -36.5z" />
    <glyph glyph-name="uni01EB" unicode="&#x1eb;" horiz-adv-x="608" 
d="M318 -203q-36 0 -64.5 22t-28.5 62q0 38 20.5 64t48.5 45q-74 2 -129.5 36t-86 93t-30.5 136q0 79 31.5 138.5t89.5 93t135 33.5t134.5 -33.5t89.5 -93t32 -138.5q0 -90 -41 -153.5t-108 -90.5q-27 -11 -53 -28.5t-43 -38.5t-17 -44q0 -22 12 -34.5t39 -12.5q11 0 19.5 2
t15.5 4q6 2 9 2q22 0 22 -22q0 -10 -11 -18q-16 -11 -37 -17.5t-49 -6.5zM304 73q38 0 76 18t63.5 58.5t25.5 106.5t-25.5 106t-63.5 57.5t-76 17.5t-76.5 -17.5t-63.5 -57.5t-25 -106t25 -106.5t63.5 -58.5t76.5 -18z" />
    <glyph glyph-name="Aringacute" unicode="&#x1fa;" horiz-adv-x="746" 
d="M461 894q-9 0 -15 6.5t-6 13.5t1.5 11.5t3.5 8.5l36 61q8 13 16.5 18.5t15.5 5.5q13 0 23.5 -8.5t10.5 -23.5t-13 -28l-51 -55q-6 -6 -11.5 -8t-10.5 -2zM373 723q-39 0 -66.5 27.5t-27.5 66.5t27.5 66.5t66.5 27.5t66.5 -27.5t27.5 -66.5t-27.5 -66.5t-66.5 -27.5z
M373 768q20 0 34.5 14.5t14.5 34.5t-14.5 34.5t-34.5 14.5t-34.5 -14.5t-14.5 -34.5t14.5 -34.5t34.5 -14.5zM95 -5q-21 0 -33 13t-12 32q0 8 5 20l255 602q7 16 21.5 28.5t36.5 12.5h10q23 0 37 -12.5t21 -28.5l255 -602q5 -12 5 -20q0 -19 -12 -32t-33 -13q-31 0 -43 28
l-65 156h-340l-65 -156q-12 -28 -43 -28zM238 262h270l-135 325z" />
    <glyph glyph-name="aringacute" unicode="&#x1fb;" horiz-adv-x="562" 
d="M359 722q-9 0 -15 6.5t-6 13.5t1.5 11.5t3.5 8.5l36 61q8 13 16.5 18.5t15.5 5.5q13 0 23.5 -8.5t10.5 -23.5t-13 -28l-51 -55q-6 -6 -11.5 -8t-10.5 -2zM271 551q-39 0 -66.5 27.5t-27.5 66.5t27.5 66.5t66.5 27.5t66.5 -27.5t27.5 -66.5t-27.5 -66.5t-66.5 -27.5z
M271 596q20 0 34.5 14.5t14.5 34.5t-14.5 34.5t-34.5 14.5t-34.5 -14.5t-14.5 -34.5t14.5 -34.5t34.5 -14.5zM209 -10q-43 0 -80.5 18t-60 51.5t-22.5 80.5q0 71 56.5 116.5t173.5 45.5h121v8q0 67 -33 95.5t-101 28.5q-42 0 -73.5 -7.5t-59.5 -16.5q-8 -2 -13 -2
q-15 0 -26 11t-11 27q0 27 26 38q35 15 77.5 25.5t95.5 10.5q73 0 119 -29t68 -74t22 -94v-283q0 -19 -13.5 -32t-32.5 -13t-32 13t-13 32v26q-27 -28 -72 -52t-116 -24zM243 70q47 0 88 23t66 52v84h-109q-70 0 -110.5 -18t-40.5 -61q0 -32 22.5 -56t83.5 -24z" />
    <glyph glyph-name="AEacute" unicode="&#x1fc;" horiz-adv-x="1040" 
d="M48 -5q-19 0 -32.5 13t-13.5 32q0 8 3 14.5t7 13.5l399 605q17 25 46 25h488q18 0 30.5 -12.5t12.5 -30.5t-12.5 -30t-30.5 -12h-355v-221h319q18 0 30.5 -12.5t12.5 -30.5t-12.5 -30t-30.5 -12h-319v-222h355q18 0 30.5 -12.5t12.5 -30.5t-12.5 -30t-30.5 -12h-401
q-19 0 -32 13t-13 32v134h-308l-102 -158q-7 -10 -17 -18t-24 -8zM245 262h254v351h-25zM545 739q-12 0 -19.5 7.5t-7.5 19.5q0 6 3 11.5t4 7.5l51 90q5 8 12.5 13.5t20.5 5.5q17 0 27 -10t10 -27q0 -14 -10 -25l-69 -82q-9 -11 -22 -11z" />
    <glyph glyph-name="aeacute" unicode="&#x1fd;" horiz-adv-x="911" 
d="M242 -10q-53 0 -97.5 18t-71.5 51.5t-27 80.5q0 71 56.5 115t173.5 44h121v11q0 67 -33 95.5t-101 28.5q-42 0 -73.5 -7.5t-59.5 -16.5q-8 -2 -13 -2q-15 0 -26 11t-11 27q0 27 26 38q35 15 77.5 25.5t95.5 10.5q65 0 107 -23.5t64 -60.5q29 38 73.5 61t107.5 23
q75 0 128.5 -32.5t82 -89.5t28.5 -129q0 -16 -11.5 -29.5t-32.5 -13.5h-344q8 -67 49 -109t128 -42q45 0 76 8.5t59 22.5q8 4 18 4q16 0 28 -11t12 -28q0 -12 -7.5 -21.5t-18.5 -15.5q-33 -19 -71.5 -31.5t-103.5 -12.5q-68 0 -119.5 22.5t-83.5 64.5q-23 -36 -58.5 -55
t-74.5 -25.5t-73 -6.5zM482 299h298q-3 52 -26.5 83.5t-57 46t-65.5 14.5t-65.5 -14.5t-57 -46t-26.5 -83.5zM260 70q31 0 62.5 8t53 29.5t21.5 61.5v57h-109q-70 0 -110.5 -16.5t-40.5 -59.5q0 -32 31 -56t92 -24zM455 567q-12 0 -19.5 7.5t-7.5 19.5q0 6 3 11.5t4 7.5
l51 90q5 8 12.5 13.5t20.5 5.5q17 0 27 -10t10 -27q0 -14 -10 -25l-69 -82q-9 -11 -22 -11z" />
    <glyph glyph-name="Oslashacute" unicode="&#x1fe;" horiz-adv-x="812" 
d="M158 -30q-11 0 -18 7t-7 17q0 8 6 17l39 55q-58 48 -89.5 121t-33.5 162q2 105 45 186t121 127t185 46q54 0 101.5 -13t86.5 -36l40 58q7 10 21 10q11 0 18 -7t7 -17q0 -8 -6 -17l-39 -56q57 -48 88.5 -120t33.5 -161q-2 -105 -45 -186t-121 -127t-185 -46
q-54 0 -101 12.5t-86 34.5l-40 -57q-7 -10 -21 -10zM229 139l314 449q-28 17 -62.5 26t-74.5 9q-83 0 -141 -36.5t-88.5 -98.5t-30.5 -139q0 -64 21.5 -118t61.5 -92zM406 75q83 0 141 36.5t88.5 98.5t30.5 139q0 63 -21 117.5t-61 91.5l-315 -449q59 -34 137 -34zM406 739
q-12 0 -19.5 7.5t-7.5 19.5q0 6 3 11.5t4 7.5l51 90q5 8 12.5 13.5t20.5 5.5q17 0 27 -10t10 -27q0 -14 -10 -25l-69 -82q-9 -11 -22 -11z" />
    <glyph glyph-name="oslashacute" unicode="&#x1ff;" horiz-adv-x="608" 
d="M120 -31q-11 0 -18 7t-7 17q0 8 6 17l29 41q-39 35 -60.5 87.5t-21.5 116.5q0 79 31.5 138.5t89.5 93t135 33.5q38 0 71 -8.5t61 -23.5l29 41q7 10 21 10q11 0 18 -7t7 -17q0 -8 -6 -17l-28 -40q40 -34 61.5 -86t21.5 -117q0 -79 -32 -138.5t-89.5 -93t-134.5 -33.5
q-75 0 -133 32l-30 -43q-7 -10 -21 -10zM182 125l204 291q-39 21 -82 21q-38 0 -76.5 -17.5t-63.5 -57.5t-25 -106q0 -44 12 -76.5t31 -54.5zM304 73q38 0 76 18t63.5 58.5t25.5 106.5q0 44 -12 75.5t-31 53.5l-204 -291q20 -11 40.5 -16t41.5 -5zM304 567q-12 0 -19.5 7.5
t-7.5 19.5q0 6 3 11.5t4 7.5l51 90q5 8 12.5 13.5t20.5 5.5q17 0 27 -10t10 -27q0 -14 -10 -25l-69 -82q-9 -11 -22 -11z" />
    <glyph glyph-name="uni0200" unicode="&#x200;" horiz-adv-x="746" 
d="M95 -5q-21 0 -33 13t-12 32q0 8 5 20l255 602q7 16 21.5 28.5t36.5 12.5h10q23 0 37 -12.5t21 -28.5l255 -602q5 -12 5 -20q0 -19 -12 -32t-33 -13q-31 0 -43 28l-65 156h-340l-65 -156q-12 -28 -43 -28zM238 262h270l-135 325zM450 739q-12 0 -19.5 7.5t-7.5 19.5
q0 6 3 11.5t4 7.5l51 90q5 8 12.5 13.5t20.5 5.5q17 0 27 -10t10 -27q0 -14 -10 -25l-69 -82q-9 -11 -22 -11zM296 739q-12 0 -19.5 7.5t-7.5 19.5q0 6 3 11.5t4 7.5l51 90q5 8 12.5 13.5t20.5 5.5q17 0 27 -10t10 -27q0 -14 -10 -25l-69 -82q-9 -11 -22 -11z" />
    <glyph glyph-name="uni0201" unicode="&#x201;" horiz-adv-x="562" 
d="M209 -10q-43 0 -80.5 18t-60 51.5t-22.5 80.5q0 71 56.5 116.5t173.5 45.5h121v8q0 67 -33 95.5t-101 28.5q-42 0 -73.5 -7.5t-59.5 -16.5q-8 -2 -13 -2q-15 0 -26 11t-11 27q0 27 26 38q35 15 77.5 25.5t95.5 10.5q73 0 119 -29t68 -74t22 -94v-283q0 -19 -13.5 -32
t-32.5 -13t-32 13t-13 32v26q-27 -28 -72 -52t-116 -24zM243 70q47 0 88 23t66 52v84h-109q-70 0 -110.5 -18t-40.5 -61q0 -32 22.5 -56t83.5 -24zM356 567q-12 0 -19.5 7.5t-7.5 19.5q0 6 3 11.5t4 7.5l51 90q5 8 12.5 13.5t20.5 5.5q17 0 27 -10t10 -27q0 -14 -10 -25
l-69 -82q-9 -11 -22 -11zM202 567q-12 0 -19.5 7.5t-7.5 19.5q0 6 3 11.5t4 7.5l51 90q5 8 12.5 13.5t20.5 5.5q17 0 27 -10t10 -27q0 -14 -10 -25l-69 -82q-9 -11 -22 -11z" />
    <glyph glyph-name="uni0202" unicode="&#x202;" horiz-adv-x="746" 
d="M95 -5q-21 0 -33 13t-12 32q0 8 5 20l255 602q7 16 21.5 28.5t36.5 12.5h10q23 0 37 -12.5t21 -28.5l255 -602q5 -12 5 -20q0 -19 -12 -32t-33 -13q-31 0 -43 28l-65 156h-340l-65 -156q-12 -28 -43 -28zM238 262h270l-135 325zM261 739q-14 0 -22.5 9t-8.5 22q0 8 3 14
q19 37 55.5 59t84.5 22t84.5 -22t55.5 -59q3 -6 3 -14q0 -13 -8.5 -22t-22.5 -9q-19 0 -28 19q-10 23 -32.5 36t-51.5 13t-51 -13t-33 -36q-9 -19 -28 -19z" />
    <glyph glyph-name="uni0203" unicode="&#x203;" horiz-adv-x="562" 
d="M209 -10q-43 0 -80.5 18t-60 51.5t-22.5 80.5q0 71 56.5 116.5t173.5 45.5h121v8q0 67 -33 95.5t-101 28.5q-42 0 -73.5 -7.5t-59.5 -16.5q-8 -2 -13 -2q-15 0 -26 11t-11 27q0 27 26 38q35 15 77.5 25.5t95.5 10.5q73 0 119 -29t68 -74t22 -94v-283q0 -19 -13.5 -32
t-32.5 -13t-32 13t-13 32v26q-27 -28 -72 -52t-116 -24zM243 70q47 0 88 23t66 52v84h-109q-70 0 -110.5 -18t-40.5 -61q0 -32 22.5 -56t83.5 -24zM167 567q-14 0 -22.5 9t-8.5 22q0 8 3 14q19 37 55.5 59t84.5 22t84.5 -22t55.5 -59q3 -6 3 -14q0 -13 -8.5 -22t-22.5 -9
q-19 0 -28 19q-10 23 -32.5 36t-51.5 13t-51 -13t-33 -36q-9 -19 -28 -19z" />
    <glyph glyph-name="uni0204" unicode="&#x204;" horiz-adv-x="638" 
d="M142 0q-19 0 -32 13t-13 32v607q0 19 13 32.5t32 13.5h401q18 0 30.5 -12.5t12.5 -30.5t-12.5 -30t-30.5 -12h-355v-221h319q18 0 30.5 -12.5t12.5 -30.5t-12.5 -30t-30.5 -12h-319v-222h355q18 0 30.5 -12.5t12.5 -30.5t-12.5 -30t-30.5 -12h-401zM419 739
q-12 0 -19.5 7.5t-7.5 19.5q0 6 3 11.5t4 7.5l51 90q5 8 12.5 13.5t20.5 5.5q17 0 27 -10t10 -27q0 -14 -10 -25l-69 -82q-9 -11 -22 -11zM265 739q-12 0 -19.5 7.5t-7.5 19.5q0 6 3 11.5t4 7.5l51 90q5 8 12.5 13.5t20.5 5.5q17 0 27 -10t10 -27q0 -14 -10 -25l-69 -82
q-9 -11 -22 -11z" />
    <glyph glyph-name="uni0205" unicode="&#x205;" horiz-adv-x="566" 
d="M307 -10q-122 0 -190.5 69.5t-68.5 195.5q0 68 25 128.5t78 98.5t136 38q77 0 130 -35.5t80.5 -92.5t27.5 -124q0 -19 -12.5 -32t-33.5 -13h-339q8 -67 51 -107.5t124 -40.5q45 0 76 8.5t59 22.5q8 4 18 4q16 0 28 -11t12 -28q0 -12 -7.5 -21.5t-18.5 -15.5
q-33 -19 -71.5 -31.5t-103.5 -12.5zM140 297h295q-3 52 -26.5 84t-56.5 47t-65 15t-65 -15t-56 -47t-26 -84zM362 567q-12 0 -19.5 7.5t-7.5 19.5q0 6 3 11.5t4 7.5l51 90q5 8 12.5 13.5t20.5 5.5q17 0 27 -10t10 -27q0 -14 -10 -25l-69 -82q-9 -11 -22 -11zM208 567
q-12 0 -19.5 7.5t-7.5 19.5q0 6 3 11.5t4 7.5l51 90q5 8 12.5 13.5t20.5 5.5q17 0 27 -10t10 -27q0 -14 -10 -25l-69 -82q-9 -11 -22 -11z" />
    <glyph glyph-name="uni0206" unicode="&#x206;" horiz-adv-x="638" 
d="M142 0q-19 0 -32 13t-13 32v607q0 19 13 32.5t32 13.5h401q18 0 30.5 -12.5t12.5 -30.5t-12.5 -30t-30.5 -12h-355v-221h319q18 0 30.5 -12.5t12.5 -30.5t-12.5 -30t-30.5 -12h-319v-222h355q18 0 30.5 -12.5t12.5 -30.5t-12.5 -30t-30.5 -12h-401zM230 739
q-14 0 -22.5 9t-8.5 22q0 8 3 14q19 37 55.5 59t84.5 22t84.5 -22t55.5 -59q3 -6 3 -14q0 -13 -8.5 -22t-22.5 -9q-19 0 -28 19q-10 23 -32.5 36t-51.5 13t-51 -13t-33 -36q-9 -19 -28 -19z" />
    <glyph glyph-name="uni0207" unicode="&#x207;" horiz-adv-x="566" 
d="M307 -10q-122 0 -190.5 69.5t-68.5 195.5q0 68 25 128.5t78 98.5t136 38q77 0 130 -35.5t80.5 -92.5t27.5 -124q0 -19 -12.5 -32t-33.5 -13h-339q8 -67 51 -107.5t124 -40.5q45 0 76 8.5t59 22.5q8 4 18 4q16 0 28 -11t12 -28q0 -12 -7.5 -21.5t-18.5 -15.5
q-33 -19 -71.5 -31.5t-103.5 -12.5zM140 297h295q-3 52 -26.5 84t-56.5 47t-65 15t-65 -15t-56 -47t-26 -84zM173 567q-14 0 -22.5 9t-8.5 22q0 8 3 14q19 37 55.5 59t84.5 22t84.5 -22t55.5 -59q3 -6 3 -14q0 -13 -8.5 -22t-22.5 -9q-19 0 -28 19q-10 23 -32.5 36t-51.5 13
t-51 -13t-33 -36q-9 -19 -28 -19z" />
    <glyph glyph-name="uni0208" unicode="&#x208;" horiz-adv-x="285" 
d="M142 -5q-19 0 -32 13t-13 32v617q0 19 13 32.5t32 13.5t32.5 -13.5t13.5 -32.5v-617q0 -19 -13.5 -32t-32.5 -13zM220 739q-12 0 -19.5 7.5t-7.5 19.5q0 6 3 11.5t4 7.5l51 90q5 8 12.5 13.5t20.5 5.5q17 0 27 -10t10 -27q0 -14 -10 -25l-69 -82q-9 -11 -22 -11zM66 739
q-12 0 -19.5 7.5t-7.5 19.5q0 6 3 11.5t4 7.5l51 90q5 8 12.5 13.5t20.5 5.5q17 0 27 -10t10 -27q0 -14 -10 -25l-69 -82q-9 -11 -22 -11z" />
    <glyph glyph-name="uni0209" unicode="&#x209;" horiz-adv-x="249" 
d="M124 -5q-19 0 -32 13t-13 32v429q0 20 13 33t32 13q20 0 33 -13t13 -33v-429q0 -19 -13 -32t-33 -13zM202 567q-12 0 -19.5 7.5t-7.5 19.5q0 6 3 11.5t4 7.5l51 90q5 8 12.5 13.5t20.5 5.5q17 0 27 -10t10 -27q0 -14 -10 -25l-69 -82q-9 -11 -22 -11zM48 567
q-12 0 -19.5 7.5t-7.5 19.5q0 6 3 11.5t4 7.5l51 90q5 8 12.5 13.5t20.5 5.5q17 0 27 -10t10 -27q0 -14 -10 -25l-69 -82q-9 -11 -22 -11z" />
    <glyph glyph-name="uni020A" unicode="&#x20a;" horiz-adv-x="285" 
d="M142 -5q-19 0 -32 13t-13 32v617q0 19 13 32.5t32 13.5t32.5 -13.5t13.5 -32.5v-617q0 -19 -13.5 -32t-32.5 -13zM31 739q-14 0 -22.5 9t-8.5 22q0 8 3 14q19 37 55.5 59t84.5 22t84.5 -22t55.5 -59q3 -6 3 -14q0 -13 -8.5 -22t-22.5 -9q-19 0 -28 19q-10 23 -32.5 36
t-51.5 13t-51 -13t-33 -36q-9 -19 -28 -19z" />
    <glyph glyph-name="uni020B" unicode="&#x20b;" horiz-adv-x="249" 
d="M124 -5q-19 0 -32 13t-13 32v429q0 20 13 33t32 13q20 0 33 -13t13 -33v-429q0 -19 -13 -32t-33 -13zM13 567q-14 0 -22.5 9t-8.5 22q0 8 3 14q19 37 55.5 59t84.5 22t84.5 -22t55.5 -59q3 -6 3 -14q0 -13 -8.5 -22t-22.5 -9q-19 0 -28 19q-10 23 -32.5 36t-51.5 13
t-51 -13t-33 -36q-9 -19 -28 -19z" />
    <glyph glyph-name="uni020C" unicode="&#x20c;" horiz-adv-x="812" 
d="M406 -10q-107 0 -185 46t-121 127t-45 186q2 105 45 186t121 127t185 46t185 -46t121 -127t45 -186q-2 -105 -45 -186t-121 -127t-185 -46zM406 75q83 0 141 36.5t88.5 98.5t30.5 139t-30.5 139t-88.5 98.5t-141 36.5t-141 -36.5t-88.5 -98.5t-30.5 -139t30.5 -139
t88.5 -98.5t141 -36.5zM483 739q-12 0 -19.5 7.5t-7.5 19.5q0 6 3 11.5t4 7.5l51 90q5 8 12.5 13.5t20.5 5.5q17 0 27 -10t10 -27q0 -14 -10 -25l-69 -82q-9 -11 -22 -11zM329 739q-12 0 -19.5 7.5t-7.5 19.5q0 6 3 11.5t4 7.5l51 90q5 8 12.5 13.5t20.5 5.5q17 0 27 -10
t10 -27q0 -14 -10 -25l-69 -82q-9 -11 -22 -11z" />
    <glyph glyph-name="uni020D" unicode="&#x20d;" horiz-adv-x="608" 
d="M304 -10q-77 0 -135 33.5t-89.5 93t-31.5 138.5t31.5 138.5t89.5 93t135 33.5t134.5 -33.5t89.5 -93t32 -138.5t-32 -138.5t-89.5 -93t-134.5 -33.5zM304 73q38 0 76 18t63.5 58.5t25.5 106.5t-25.5 106t-63.5 57.5t-76 17.5t-76.5 -17.5t-63.5 -57.5t-25 -106t25 -106.5
t63.5 -58.5t76.5 -18zM381 567q-12 0 -19.5 7.5t-7.5 19.5q0 6 3 11.5t4 7.5l51 90q5 8 12.5 13.5t20.5 5.5q17 0 27 -10t10 -27q0 -14 -10 -25l-69 -82q-9 -11 -22 -11zM227 567q-12 0 -19.5 7.5t-7.5 19.5q0 6 3 11.5t4 7.5l51 90q5 8 12.5 13.5t20.5 5.5q17 0 27 -10
t10 -27q0 -14 -10 -25l-69 -82q-9 -11 -22 -11z" />
    <glyph glyph-name="uni020E" unicode="&#x20e;" horiz-adv-x="812" 
d="M406 -10q-107 0 -185 46t-121 127t-45 186q2 105 45 186t121 127t185 46t185 -46t121 -127t45 -186q-2 -105 -45 -186t-121 -127t-185 -46zM406 75q83 0 141 36.5t88.5 98.5t30.5 139t-30.5 139t-88.5 98.5t-141 36.5t-141 -36.5t-88.5 -98.5t-30.5 -139t30.5 -139
t88.5 -98.5t141 -36.5zM294 739q-14 0 -22.5 9t-8.5 22q0 8 3 14q19 37 55.5 59t84.5 22t84.5 -22t55.5 -59q3 -6 3 -14q0 -13 -8.5 -22t-22.5 -9q-19 0 -28 19q-10 23 -32.5 36t-51.5 13t-51 -13t-33 -36q-9 -19 -28 -19z" />
    <glyph glyph-name="uni020F" unicode="&#x20f;" horiz-adv-x="608" 
d="M304 -10q-77 0 -135 33.5t-89.5 93t-31.5 138.5t31.5 138.5t89.5 93t135 33.5t134.5 -33.5t89.5 -93t32 -138.5t-32 -138.5t-89.5 -93t-134.5 -33.5zM304 73q38 0 76 18t63.5 58.5t25.5 106.5t-25.5 106t-63.5 57.5t-76 17.5t-76.5 -17.5t-63.5 -57.5t-25 -106t25 -106.5
t63.5 -58.5t76.5 -18zM192 567q-14 0 -22.5 9t-8.5 22q0 8 3 14q19 37 55.5 59t84.5 22t84.5 -22t55.5 -59q3 -6 3 -14q0 -13 -8.5 -22t-22.5 -9q-19 0 -28 19q-10 23 -32.5 36t-51.5 13t-51 -13t-33 -36q-9 -19 -28 -19z" />
    <glyph glyph-name="uni0210" unicode="&#x210;" horiz-adv-x="712" 
d="M142 -5q-19 0 -32 13t-13 32v612q0 19 13 32.5t32 13.5h233q95 0 155 -27t88.5 -72.5t28.5 -103.5t-32.5 -108t-98.5 -73q42 -11 67 -39.5t37.5 -64.5t16.5 -69.5t4 -54.5v-46q0 -19 -13 -32t-32 -13q-21 0 -33.5 12.5t-12.5 32.5v30q0 25 -3.5 59t-17.5 67t-45.5 54.5
t-88.5 21.5h-207v-232q0 -19 -13.5 -32t-32.5 -13zM188 358h181q84 0 135.5 33t51.5 97q0 37 -17 65t-59 43.5t-116 15.5h-176v-254zM433 739q-12 0 -19.5 7.5t-7.5 19.5q0 6 3 11.5t4 7.5l51 90q5 8 12.5 13.5t20.5 5.5q17 0 27 -10t10 -27q0 -14 -10 -25l-69 -82
q-9 -11 -22 -11zM279 739q-12 0 -19.5 7.5t-7.5 19.5q0 6 3 11.5t4 7.5l51 90q5 8 12.5 13.5t20.5 5.5q17 0 27 -10t10 -27q0 -14 -10 -25l-69 -82q-9 -11 -22 -11z" />
    <glyph glyph-name="uni0211" unicode="&#x211;" horiz-adv-x="383" 
d="M124 -5q-19 0 -32 13t-13 32v429q0 19 13 32.5t32 13.5t32.5 -13.5t13.5 -32.5v-43q27 36 66 65t91 29h5q19 0 31.5 -13t12.5 -32t-13 -31t-33 -12h-5q-49 0 -89 -24.5t-66 -63.5v-304q0 -19 -13.5 -32t-32.5 -13zM285 567q-12 0 -19.5 7.5t-7.5 19.5q0 6 3 11.5t4 7.5
l51 90q5 8 12.5 13.5t20.5 5.5q17 0 27 -10t10 -27q0 -14 -10 -25l-69 -82q-9 -11 -22 -11zM131 567q-12 0 -19.5 7.5t-7.5 19.5q0 6 3 11.5t4 7.5l51 90q5 8 12.5 13.5t20.5 5.5q17 0 27 -10t10 -27q0 -14 -10 -25l-69 -82q-9 -11 -22 -11z" />
    <glyph glyph-name="uni0212" unicode="&#x212;" horiz-adv-x="712" 
d="M142 -5q-19 0 -32 13t-13 32v612q0 19 13 32.5t32 13.5h233q95 0 155 -27t88.5 -72.5t28.5 -103.5t-32.5 -108t-98.5 -73q42 -11 67 -39.5t37.5 -64.5t16.5 -69.5t4 -54.5v-46q0 -19 -13 -32t-32 -13q-21 0 -33.5 12.5t-12.5 32.5v30q0 25 -3.5 59t-17.5 67t-45.5 54.5
t-88.5 21.5h-207v-232q0 -19 -13.5 -32t-32.5 -13zM188 358h181q84 0 135.5 33t51.5 97q0 37 -17 65t-59 43.5t-116 15.5h-176v-254zM244 739q-14 0 -22.5 9t-8.5 22q0 8 3 14q19 37 55.5 59t84.5 22t84.5 -22t55.5 -59q3 -6 3 -14q0 -13 -8.5 -22t-22.5 -9q-19 0 -28 19
q-10 23 -32.5 36t-51.5 13t-51 -13t-33 -36q-9 -19 -28 -19z" />
    <glyph glyph-name="uni0213" unicode="&#x213;" horiz-adv-x="383" 
d="M124 -5q-19 0 -32 13t-13 32v429q0 19 13 32.5t32 13.5t32.5 -13.5t13.5 -32.5v-43q27 36 66 65t91 29h5q19 0 31.5 -13t12.5 -32t-13 -31t-33 -12h-5q-49 0 -89 -24.5t-66 -63.5v-304q0 -19 -13.5 -32t-32.5 -13zM96 567q-14 0 -22.5 9t-8.5 22q0 8 3 14q19 37 55.5 59
t84.5 22t84.5 -22t55.5 -59q3 -6 3 -14q0 -13 -8.5 -22t-22.5 -9q-19 0 -28 19q-10 23 -32.5 36t-51.5 13t-51 -13t-33 -36q-9 -19 -28 -19z" />
    <glyph glyph-name="uni0214" unicode="&#x214;" horiz-adv-x="758" 
d="M379 -10q-50 0 -101 16t-93 49.5t-67.5 85t-25.5 121.5v395q0 19 13 32.5t32 13.5t32.5 -13.5t13.5 -32.5v-398q0 -62 28.5 -103.5t73.5 -62t94 -20.5t94 20.5t73.5 62t28.5 103.5v398q0 19 13 32.5t32 13.5t32.5 -13.5t13.5 -32.5v-395q0 -70 -25.5 -121.5t-67.5 -85
t-93 -49.5t-101 -16zM456 739q-12 0 -19.5 7.5t-7.5 19.5q0 6 3 11.5t4 7.5l51 90q5 8 12.5 13.5t20.5 5.5q17 0 27 -10t10 -27q0 -14 -10 -25l-69 -82q-9 -11 -22 -11zM302 739q-12 0 -19.5 7.5t-7.5 19.5q0 6 3 11.5t4 7.5l51 90q5 8 12.5 13.5t20.5 5.5q17 0 27 -10
t10 -27q0 -14 -10 -25l-69 -82q-9 -11 -22 -11z" />
    <glyph glyph-name="uni0215" unicode="&#x215;" horiz-adv-x="609" 
d="M253 -10q-57 0 -97 26.5t-61 71.5t-21 98v284q0 19 13.5 32t32.5 13t32 -13t13 -32v-274q0 -57 26 -89.5t84 -32.5q54 0 94 29.5t70 66.5v300q0 19 13.5 32t32.5 13t32 -13t13 -32v-429q0 -19 -13 -32.5t-32 -13.5t-32.5 13.5t-13.5 32.5v41q-31 -34 -75 -63t-111 -29z
M382 567q-12 0 -19.5 7.5t-7.5 19.5q0 6 3 11.5t4 7.5l51 90q5 8 12.5 13.5t20.5 5.5q17 0 27 -10t10 -27q0 -14 -10 -25l-69 -82q-9 -11 -22 -11zM228 567q-12 0 -19.5 7.5t-7.5 19.5q0 6 3 11.5t4 7.5l51 90q5 8 12.5 13.5t20.5 5.5q17 0 27 -10t10 -27q0 -14 -10 -25
l-69 -82q-9 -11 -22 -11z" />
    <glyph glyph-name="uni0216" unicode="&#x216;" horiz-adv-x="758" 
d="M379 -10q-50 0 -101 16t-93 49.5t-67.5 85t-25.5 121.5v395q0 19 13 32.5t32 13.5t32.5 -13.5t13.5 -32.5v-398q0 -62 28.5 -103.5t73.5 -62t94 -20.5t94 20.5t73.5 62t28.5 103.5v398q0 19 13 32.5t32 13.5t32.5 -13.5t13.5 -32.5v-395q0 -70 -25.5 -121.5t-67.5 -85
t-93 -49.5t-101 -16zM267 739q-14 0 -22.5 9t-8.5 22q0 8 3 14q19 37 55.5 59t84.5 22t84.5 -22t55.5 -59q3 -6 3 -14q0 -13 -8.5 -22t-22.5 -9q-19 0 -28 19q-10 23 -32.5 36t-51.5 13t-51 -13t-33 -36q-9 -19 -28 -19z" />
    <glyph glyph-name="uni0217" unicode="&#x217;" horiz-adv-x="609" 
d="M253 -10q-57 0 -97 26.5t-61 71.5t-21 98v284q0 19 13.5 32t32.5 13t32 -13t13 -32v-274q0 -57 26 -89.5t84 -32.5q54 0 94 29.5t70 66.5v300q0 19 13.5 32t32.5 13t32 -13t13 -32v-429q0 -19 -13 -32.5t-32 -13.5t-32.5 13.5t-13.5 32.5v41q-31 -34 -75 -63t-111 -29z
M193 567q-14 0 -22.5 9t-8.5 22q0 8 3 14q19 37 55.5 59t84.5 22t84.5 -22t55.5 -59q3 -6 3 -14q0 -13 -8.5 -22t-22.5 -9q-19 0 -28 19q-10 23 -32.5 36t-51.5 13t-51 -13t-33 -36q-9 -19 -28 -19z" />
    <glyph glyph-name="uni0218" unicode="&#x218;" horiz-adv-x="616" 
d="M317 -10q-75 0 -134.5 14.5t-103.5 33.5q-11 5 -19.5 16.5t-8.5 24.5q0 17 11 29.5t30 12.5q10 0 19 -4q34 -15 83.5 -28t113.5 -13q50 0 89.5 10.5t62.5 36t23 68.5q0 32 -23 51.5t-61 32.5t-83.5 24t-90.5 24.5t-83 35.5t-61 56.5t-23 87.5q0 56 29.5 102.5t87.5 74.5
t142 28q59 0 109 -9t90 -24q11 -4 19.5 -13t8.5 -27q0 -15 -10.5 -28.5t-29.5 -13.5q-4 0 -8 1.5t-8 2.5q-34 12 -74.5 19.5t-86.5 7.5q-76 0 -127 -29t-51 -85q0 -37 23 -59t61 -35t83 -23.5t90 -23.5t83 -34.5t61 -57t23 -92.5q0 -56 -31.5 -100.5t-89 -69.5t-135.5 -25z
M278 -263q-9 0 -15.5 6.5t-6.5 16.5q0 14 12 21q19 11 31 24t12 32q-22 0 -35.5 13.5t-13.5 34.5t14.5 36t35.5 15q23 0 36.5 -15t13.5 -38v-33q0 -43 -21.5 -68t-46.5 -40q-8 -5 -16 -5z" />
    <glyph glyph-name="uni0219" unicode="&#x219;" horiz-adv-x="480" 
d="M244 -10q-55 0 -99.5 12t-82.5 33q-17 12 -17 33q0 15 11 27.5t28 12.5q9 0 18 -4q27 -12 59.5 -21t76.5 -9q58 0 84.5 18.5t26.5 52.5q0 22 -21.5 34t-56 20.5t-72.5 18t-72.5 26t-56 45t-21.5 73.5q0 68 49 113t146 45q41 0 77.5 -7t67.5 -18q14 -4 21.5 -15.5
t7.5 -22.5q0 -16 -11.5 -28t-28.5 -12q-4 0 -7 0.5t-6 1.5q-24 8 -52.5 13t-61.5 5q-55 0 -85 -20t-30 -50q0 -26 21.5 -40t56 -22.5t73 -17.5t73 -25.5t56 -45.5t21.5 -78q0 -61 -48.5 -104.5t-144.5 -43.5zM207 -263q-9 0 -15.5 6.5t-6.5 16.5q0 14 12 21q19 11 31 24
t12 32q-22 0 -35.5 13.5t-13.5 34.5t14.5 36t35.5 15q23 0 36.5 -15t13.5 -38v-33q0 -43 -21.5 -68t-46.5 -40q-8 -5 -16 -5z" />
    <glyph glyph-name="uni021A" unicode="&#x21a;" horiz-adv-x="609" 
d="M304 -5q-19 0 -32 13t-13 32v573h-204q-18 0 -30 12t-12 30t12 30.5t30 12.5h498q18 0 30.5 -12.5t12.5 -30.5t-12.5 -30t-30.5 -12h-203v-573q0 -19 -13.5 -32t-32.5 -13zM275 -263q-9 0 -15.5 6.5t-6.5 16.5q0 14 12 21q19 11 31 24t12 32q-22 0 -35.5 13.5t-13.5 34.5
t14.5 36t35.5 15q23 0 36.5 -15t13.5 -38v-33q0 -43 -21.5 -68t-46.5 -40q-8 -5 -16 -5z" />
    <glyph glyph-name="uni021B" unicode="&#x21b;" horiz-adv-x="382" 
d="M255 -10q-18 0 -42.5 3.5t-48 16t-39.5 39.5t-16 73v310h-71q-19 0 -19 19q0 10 9 17l136 133q2 2 6.5 5.5t10.5 3.5q8 0 13.5 -6t5.5 -14v-80h113q17 0 28 -11t11 -28q0 -16 -11 -27.5t-28 -11.5h-113v-302q0 -29 11 -42t26.5 -15.5t27.5 -2.5q24 0 35.5 4.5t24.5 4.5
q14 0 25 -10t11 -26q0 -23 -23 -35q-18 -8 -38.5 -13t-44.5 -5zM188 -263q-9 0 -15.5 6.5t-6.5 16.5q0 14 12 21q19 11 31 24t12 32q-22 0 -35.5 13.5t-13.5 34.5t14.5 36t35.5 15q23 0 36.5 -15t13.5 -38v-33q0 -43 -21.5 -68t-46.5 -40q-8 -5 -16 -5z" />
    <glyph glyph-name="uni022A" unicode="&#x22a;" horiz-adv-x="812" 
d="M406 -10q-107 0 -185 46t-121 127t-45 186q2 105 45 186t121 127t185 46t185 -46t121 -127t45 -186q-2 -105 -45 -186t-121 -127t-185 -46zM406 75q83 0 141 36.5t88.5 98.5t30.5 139t-30.5 139t-88.5 98.5t-141 36.5t-141 -36.5t-88.5 -98.5t-30.5 -139t30.5 -139
t88.5 -98.5t141 -36.5zM490 747q-21 0 -36 15t-15 36t15 36t36 15t36 -15t15 -36t-15 -36t-36 -15zM322 747q-21 0 -36 15t-15 36t15 36t36 15t36 -15t15 -36t-15 -36t-36 -15zM289 891q-13 0 -21.5 8.5t-8.5 21.5t8.5 21.5t21.5 8.5h234q13 0 21.5 -8.5t8.5 -21.5
t-8.5 -21.5t-21.5 -8.5h-234z" />
    <glyph glyph-name="uni022B" unicode="&#x22b;" horiz-adv-x="608" 
d="M304 -10q-77 0 -135 33.5t-89.5 93t-31.5 138.5t31.5 138.5t89.5 93t135 33.5t134.5 -33.5t89.5 -93t32 -138.5t-32 -138.5t-89.5 -93t-134.5 -33.5zM304 73q38 0 76 18t63.5 58.5t25.5 106.5t-25.5 106t-63.5 57.5t-76 17.5t-76.5 -17.5t-63.5 -57.5t-25 -106t25 -106.5
t63.5 -58.5t76.5 -18zM388 575q-21 0 -36 15t-15 36t15 36t36 15t36 -15t15 -36t-15 -36t-36 -15zM220 575q-21 0 -36 15t-15 36t15 36t36 15t36 -15t15 -36t-15 -36t-36 -15zM187 725q-13 0 -21.5 8.5t-8.5 21.5t8.5 21.5t21.5 8.5h234q13 0 21.5 -8.5t8.5 -21.5
t-8.5 -21.5t-21.5 -8.5h-234z" />
    <glyph glyph-name="uni022C" unicode="&#x22c;" horiz-adv-x="812" 
d="M406 -10q-107 0 -185 46t-121 127t-45 186q2 105 45 186t121 127t185 46t185 -46t121 -127t45 -186q-2 -105 -45 -186t-121 -127t-185 -46zM406 75q83 0 141 36.5t88.5 98.5t30.5 139t-30.5 139t-88.5 98.5t-141 36.5t-141 -36.5t-88.5 -98.5t-30.5 -139t30.5 -139
t88.5 -98.5t141 -36.5zM268 743q-9 0 -16 6.5t-7 16.5q0 20 10 42t29 37.5t45 15.5q29 0 54 -11.5t49 -23.5t51 -12q16 0 24.5 7t12.5 20q3 8 8.5 14.5t16.5 6.5t16.5 -6.5t6.5 -15.5q0 -21 -10.5 -43t-29.5 -37t-44 -15q-30 0 -55 12t-49 24t-50 12q-15 0 -24 -9t-15 -23
q-2 -7 -7.5 -12.5t-15.5 -5.5zM289 891q-13 0 -21.5 8.5t-8.5 21.5t8.5 21.5t21.5 8.5h234q13 0 21.5 -8.5t8.5 -21.5t-8.5 -21.5t-21.5 -8.5h-234z" />
    <glyph glyph-name="uni022D" unicode="&#x22d;" horiz-adv-x="608" 
d="M304 -10q-77 0 -135 33.5t-89.5 93t-31.5 138.5t31.5 138.5t89.5 93t135 33.5t134.5 -33.5t89.5 -93t32 -138.5t-32 -138.5t-89.5 -93t-134.5 -33.5zM304 73q38 0 76 18t63.5 58.5t25.5 106.5t-25.5 106t-63.5 57.5t-76 17.5t-76.5 -17.5t-63.5 -57.5t-25 -106t25 -106.5
t63.5 -58.5t76.5 -18zM166 571q-9 0 -16 6.5t-7 16.5q0 20 10 42t29 37.5t45 15.5q29 0 54 -11.5t49 -23.5t51 -12q16 0 24.5 7t12.5 20q3 8 8.5 14.5t16.5 6.5t16.5 -6.5t6.5 -15.5q0 -21 -10.5 -43t-29.5 -37t-44 -15q-30 0 -55 12t-49 24t-50 12q-15 0 -24 -9t-15 -23
q-2 -7 -7.5 -12.5t-15.5 -5.5zM187 735q-13 0 -21.5 8.5t-8.5 21.5t8.5 21.5t21.5 8.5h234q13 0 21.5 -8.5t8.5 -21.5t-8.5 -21.5t-21.5 -8.5h-234z" />
    <glyph glyph-name="uni0230" unicode="&#x230;" horiz-adv-x="812" 
d="M406 -10q-107 0 -185 46t-121 127t-45 186q2 105 45 186t121 127t185 46t185 -46t121 -127t45 -186q-2 -105 -45 -186t-121 -127t-185 -46zM406 75q83 0 141 36.5t88.5 98.5t30.5 139t-30.5 139t-88.5 98.5t-141 36.5t-141 -36.5t-88.5 -98.5t-30.5 -139t30.5 -139
t88.5 -98.5t141 -36.5zM406 747q-21 0 -36 15t-15 36t15 36t36 15t36 -15t15 -36t-15 -36t-36 -15zM289 891q-13 0 -21.5 8.5t-8.5 21.5t8.5 21.5t21.5 8.5h234q13 0 21.5 -8.5t8.5 -21.5t-8.5 -21.5t-21.5 -8.5h-234z" />
    <glyph glyph-name="uni0231" unicode="&#x231;" horiz-adv-x="608" 
d="M304 -10q-77 0 -135 33.5t-89.5 93t-31.5 138.5t31.5 138.5t89.5 93t135 33.5t134.5 -33.5t89.5 -93t32 -138.5t-32 -138.5t-89.5 -93t-134.5 -33.5zM304 73q38 0 76 18t63.5 58.5t25.5 106.5t-25.5 106t-63.5 57.5t-76 17.5t-76.5 -17.5t-63.5 -57.5t-25 -106t25 -106.5
t63.5 -58.5t76.5 -18zM304 575q-21 0 -36 15t-15 36t15 36t36 15t36 -15t15 -36t-15 -36t-36 -15zM187 735q-13 0 -21.5 8.5t-8.5 21.5t8.5 21.5t21.5 8.5h234q13 0 21.5 -8.5t8.5 -21.5t-8.5 -21.5t-21.5 -8.5h-234z" />
    <glyph glyph-name="uni0232" unicode="&#x232;" horiz-adv-x="639" 
d="M320 -5q-19 0 -32.5 13t-13.5 32v255l-239 335q-8 13 -8 27q0 19 12.5 32.5t31.5 13.5q25 0 40 -23l209 -304l209 304q15 23 40 23q20 0 32.5 -13.5t11.5 -32.5q0 -14 -8 -27l-240 -335v-255q0 -19 -13 -32t-32 -13zM203 760q-13 0 -21.5 8.5t-8.5 21.5t8.5 21.5
t21.5 8.5h234q13 0 21.5 -8.5t8.5 -21.5t-8.5 -21.5t-21.5 -8.5h-234z" />
    <glyph glyph-name="uni0233" unicode="&#x233;" horiz-adv-x="537" 
d="M193 -235q-18 0 -30.5 13t-12.5 31q0 9 3 16l65 167l-188 458q-1 4 -2.5 9t-1.5 10q0 19 13 32.5t32 13.5q14 0 25.5 -8t16.5 -20l154 -382l157 380q6 14 16.5 22t25.5 8q19 0 32 -13.5t13 -32.5q0 -9 -3 -17l-273 -656q-6 -13 -16 -22t-26 -9zM152 588q-13 0 -21.5 8.5
t-8.5 21.5t8.5 21.5t21.5 8.5h234q13 0 21.5 -8.5t8.5 -21.5t-8.5 -21.5t-21.5 -8.5h-234z" />
    <glyph glyph-name="uni0237" unicode="&#x237;" horiz-adv-x="254" 
d="M44 -240q-36 0 -63 9q-26 8 -26 36q0 15 11 26.5t27 11.5q7 0 14 -1.5t16 -1.5q26 0 43.5 9.5t17.5 49.5v569q0 20 13 33t32 13q20 0 33 -13t13 -33v-571q0 -58 -29.5 -97.5t-101.5 -39.5z" />
    <glyph glyph-name="uni0259" unicode="&#x259;" horiz-adv-x="566" 
d="M277 -10q-77 0 -129.5 34.5t-79.5 91.5t-27 126q0 19 12.5 32t33.5 13h339q-6 68 -49 108t-119 40q-46 0 -77 -8.5t-59 -22.5q-8 -4 -18 -4q-16 0 -28 11t-12 28q0 12 8 21.5t18 15.5q34 20 79 32t92 12q122 0 189.5 -69.5t67.5 -195.5q0 -67 -25.5 -128t-79 -99
t-136.5 -38zM279 67q32 0 65 15t56 47t26 84h-289q2 -52 23 -84t53 -47t66 -15z" />
    <glyph glyph-name="uni02BB" unicode="&#x2bb;" horiz-adv-x="400" 
d="M198 575q-22 0 -36 15.5t-14 37.5v33q0 43 21.5 68t46.5 40q8 5 16 5q9 0 15.5 -6.5t6.5 -16.5q0 -13 -12 -21q-19 -11 -31 -23.5t-12 -32.5q22 0 35.5 -13.5t13.5 -34.5t-14.5 -36t-35.5 -15z" />
    <glyph glyph-name="uni02BC" unicode="&#x2bc;" horiz-adv-x="400" 
d="M219 554q-7 0 -13 6t-6 16q0 7 4 11t9 8q11 8 22 19t11 29q-20 0 -33 12.5t-13 31.5q0 20 13.5 34t33.5 14q21 0 33.5 -14.5t12.5 -34.5v-31q0 -32 -15 -53.5t-43 -41.5q-6 -6 -16 -6z" />
    <glyph glyph-name="uni02BE" unicode="&#x2be;" horiz-adv-x="400" 
d="M200 551v42q23 0 37 15t14 37q0 23 -14 37.5t-37 14.5v42q41 0 68.5 -26.5t27.5 -67.5q0 -40 -27.5 -67t-68.5 -27z" />
    <glyph glyph-name="uni02BF" unicode="&#x2bf;" horiz-adv-x="400" 
d="M200 551q-40 0 -68 27t-28 67q0 41 28 67.5t68 26.5v-42q-23 0 -37 -14.5t-14 -37.5q0 -22 14 -37t37 -15v-42z" />
    <glyph glyph-name="circumflex" unicode="&#x2c6;" horiz-adv-x="409" 
d="M95 566q-13 0 -22 9.5t-8 20.5q0 11 8 19l68 70q8 8 17 14t23 6h38q14 0 23.5 -6t16.5 -14l68 -70q8 -8 8 -19q1 -11 -8 -20.5t-22 -9.5q-11 0 -18 7l-87 74l-87 -74q-7 -7 -18 -7z" />
    <glyph glyph-name="caron" unicode="&#x2c7;" horiz-adv-x="391" 
d="M181 567q-14 0 -23 6t-17 14l-68 70q-8 8 -8 19q-1 11 8 20.5t22 9.5q11 0 18 -7l87 -74l87 74q7 7 18 7q13 0 22 -9.5t8 -20.5q0 -11 -8 -19l-68 -70q-7 -8 -16.5 -14t-23.5 -6h-38z" />
    <glyph glyph-name="uni02C8" unicode="&#x2c8;" horiz-adv-x="198" 
d="M99 545q-16 0 -27.5 11.5t-11.5 27.5v153q0 17 11.5 28t27.5 11q17 0 28 -11t11 -28v-153q0 -16 -11 -27.5t-28 -11.5z" />
    <glyph glyph-name="uni02C9" unicode="&#x2c9;" horiz-adv-x="400" 
d="M83 588q-13 0 -21.5 8.5t-8.5 21.5t8.5 21.5t21.5 8.5h234q13 0 21.5 -8.5t8.5 -21.5t-8.5 -21.5t-21.5 -8.5h-234z" />
    <glyph glyph-name="uni02CA" unicode="&#x2ca;" horiz-adv-x="400" 
d="M200 567q-12 0 -19.5 7.5t-7.5 19.5q0 6 3 11.5t4 7.5l51 90q5 8 12.5 13.5t20.5 5.5q17 0 27 -10t10 -27q0 -14 -10 -25l-69 -82q-9 -11 -22 -11z" />
    <glyph glyph-name="uni02CB" unicode="&#x2cb;" horiz-adv-x="400" 
d="M200 567q-13 0 -22 11l-69 82q-10 11 -10 25q0 17 10.5 27t26.5 10q13 0 21 -5.5t12 -13.5l51 -90q2 -2 4.5 -7.5t2.5 -11.5q0 -12 -7.5 -19.5t-19.5 -7.5z" />
    <glyph glyph-name="uni02CC" unicode="&#x2cc;" horiz-adv-x="198" 
d="M99 -155q-16 0 -27.5 11.5t-11.5 27.5v153q0 17 11.5 28t27.5 11q17 0 28 -11t11 -28v-153q0 -16 -11 -27.5t-28 -11.5z" />
    <glyph glyph-name="breve" unicode="&#x2d8;" horiz-adv-x="385" 
d="M200 576q-48 0 -85.5 22t-54.5 59q-3 6 -3 14q0 13 8.5 22t22.5 9q19 0 28 -19q11 -22 33 -35.5t51 -13.5t51.5 13.5t32.5 35.5q9 19 28 19q14 0 22.5 -9t8.5 -22q0 -8 -3 -14q-17 -37 -54.5 -59t-85.5 -22z" />
    <glyph glyph-name="dotaccent" unicode="&#x2d9;" horiz-adv-x="228" 
d="M200 575q-21 0 -36 15t-15 36t15 36t36 15t36 -15t15 -36t-15 -36t-36 -15z" />
    <glyph glyph-name="ring" unicode="&#x2da;" horiz-adv-x="270" 
d="M200 551q-39 0 -66.5 27.5t-27.5 66.5t27.5 66.5t66.5 27.5t66.5 -27.5t27.5 -66.5t-27.5 -66.5t-66.5 -27.5zM200 596q20 0 34.5 14.5t14.5 34.5t-14.5 34.5t-34.5 14.5t-34.5 -14.5t-14.5 -34.5t14.5 -34.5t34.5 -14.5z" />
    <glyph glyph-name="ogonek" unicode="&#x2db;" horiz-adv-x="351" 
d="M108 -203q-36 0 -64.5 22t-28.5 62q0 48 32 78.5t72 50.5h81q-23 -11 -49.5 -27t-44.5 -37t-18 -46q0 -22 12 -34.5t39 -12.5q11 0 19.5 2t15.5 4q6 2 9 2q22 0 22 -22q0 -10 -11 -18q-16 -11 -37 -17.5t-49 -6.5z" />
    <glyph glyph-name="tilde" unicode="&#x2dc;" horiz-adv-x="432" 
d="M62 571q-9 0 -16 6.5t-7 16.5q0 20 10 42t29 37.5t45 15.5q29 0 54 -11.5t49 -23.5t51 -12q16 0 24.5 7t12.5 20q3 8 8.5 14.5t16.5 6.5t16.5 -6.5t6.5 -15.5q0 -21 -10.5 -43t-29.5 -37t-44 -15q-30 0 -55 12t-49 24t-50 12q-15 0 -24 -9t-15 -23q-2 -7 -7.5 -12.5
t-15.5 -5.5z" />
    <glyph glyph-name="hungarumlaut" unicode="&#x2dd;" horiz-adv-x="399" 
d="M257 567q-10 0 -18.5 7t-8.5 18q0 5 1 8l27 90q5 16 16 23.5t22 7.5q14 0 24.5 -8.5t10.5 -24.5q0 -12 -7 -25l-41 -79q-8 -17 -26 -17zM141 567q-10 0 -18.5 7t-8.5 18q0 5 1 8l27 90q5 16 16 23.5t22 7.5q14 0 24.5 -8.5t10.5 -24.5q0 -12 -7 -25l-41 -79
q-8 -17 -26 -17z" />
    <glyph glyph-name="gravecomb" unicode="&#x300;" 
d="M200 567q-13 0 -22 11l-69 82q-10 11 -10 25q0 17 10.5 27t26.5 10q13 0 21 -5.5t12 -13.5l51 -90q2 -2 4.5 -7.5t2.5 -11.5q0 -12 -7.5 -19.5t-19.5 -7.5z" />
    <glyph glyph-name="acutecomb" unicode="&#x301;" 
d="M200 567q-12 0 -19.5 7.5t-7.5 19.5q0 6 3 11.5t4 7.5l51 90q5 8 12.5 13.5t20.5 5.5q17 0 27 -10t10 -27q0 -14 -10 -25l-69 -82q-9 -11 -22 -11z" />
    <glyph glyph-name="uni0302" unicode="&#x302;" 
d="M95 566q-13 0 -22 9.5t-8 20.5q0 11 8 19l68 70q8 8 17 14t23 6h38q14 0 23.5 -6t16.5 -14l68 -70q8 -8 8 -19q1 -11 -8 -20.5t-22 -9.5q-11 0 -18 7l-87 74l-87 -74q-7 -7 -18 -7z" />
    <glyph glyph-name="tildecomb" unicode="&#x303;" 
d="M62 571q-9 0 -16 6.5t-7 16.5q0 20 10 42t29 37.5t45 15.5q29 0 54 -11.5t49 -23.5t51 -12q16 0 24.5 7t12.5 20q3 8 8.5 14.5t16.5 6.5t16.5 -6.5t6.5 -15.5q0 -21 -10.5 -43t-29.5 -37t-44 -15q-30 0 -55 12t-49 24t-50 12q-15 0 -24 -9t-15 -23q-2 -7 -7.5 -12.5
t-15.5 -5.5z" />
    <glyph glyph-name="uni0304" unicode="&#x304;" 
d="M83 588q-13 0 -21.5 8.5t-8.5 21.5t8.5 21.5t21.5 8.5h234q13 0 21.5 -8.5t8.5 -21.5t-8.5 -21.5t-21.5 -8.5h-234z" />
    <glyph glyph-name="uni0306" unicode="&#x306;" 
d="M200 576q-48 0 -85.5 22t-54.5 59q-3 6 -3 14q0 13 8.5 22t22.5 9q19 0 28 -19q11 -22 33 -35.5t51 -13.5t51.5 13.5t32.5 35.5q9 19 28 19q14 0 22.5 -9t8.5 -22q0 -8 -3 -14q-17 -37 -54.5 -59t-85.5 -22z" />
    <glyph glyph-name="uni0307" unicode="&#x307;" 
d="M200 575q-21 0 -36 15t-15 36t15 36t36 15t36 -15t15 -36t-15 -36t-36 -15z" />
    <glyph glyph-name="uni0308" unicode="&#x308;" 
d="M284 575q-21 0 -36 15t-15 36t15 36t36 15t36 -15t15 -36t-15 -36t-36 -15zM116 575q-21 0 -36 15t-15 36t15 36t36 15t36 -15t15 -36t-15 -36t-36 -15z" />
    <glyph glyph-name="hookabovecomb" unicode="&#x309;" 
d="M193 566q-8 0 -15.5 5.5t-7.5 18.5q0 17 10 29t23 21t23 17.5t10 18.5q0 19 -31 19q-29 0 -43.5 -7.5t-23.5 -7.5q-10 0 -15.5 7t-5.5 14q0 5 2.5 11t8.5 10q17 11 38 15.5t39 4.5q39 0 61 -16.5t22 -48.5q0 -21 -8.5 -34t-21 -21.5t-24 -17.5t-16.5 -23q-6 -15 -25 -15z
" />
    <glyph glyph-name="uni030A" unicode="&#x30a;" 
d="M200 551q-39 0 -66.5 27.5t-27.5 66.5t27.5 66.5t66.5 27.5t66.5 -27.5t27.5 -66.5t-27.5 -66.5t-66.5 -27.5zM200 596q20 0 34.5 14.5t14.5 34.5t-14.5 34.5t-34.5 14.5t-34.5 -14.5t-14.5 -34.5t14.5 -34.5t34.5 -14.5z" />
    <glyph glyph-name="uni030B" unicode="&#x30b;" 
d="M257 567q-10 0 -18.5 7t-8.5 18q0 5 1 8l27 90q5 16 16 23.5t22 7.5q14 0 24.5 -8.5t10.5 -24.5q0 -12 -7 -25l-41 -79q-8 -17 -26 -17zM141 567q-10 0 -18.5 7t-8.5 18q0 5 1 8l27 90q5 16 16 23.5t22 7.5q14 0 24.5 -8.5t10.5 -24.5q0 -12 -7 -25l-41 -79
q-8 -17 -26 -17z" />
    <glyph glyph-name="uni030C" unicode="&#x30c;" 
d="M181 567q-14 0 -23 6t-17 14l-68 70q-8 8 -8 19q-1 11 8 20.5t22 9.5q11 0 18 -7l87 -74l87 74q7 7 18 7q13 0 22 -9.5t8 -20.5q0 -11 -8 -19l-68 -70q-7 -8 -16.5 -14t-23.5 -6h-38z" />
    <glyph glyph-name="uni030F" unicode="&#x30f;" 
d="M277 567q-12 0 -19.5 7.5t-7.5 19.5q0 6 3 11.5t4 7.5l51 90q5 8 12.5 13.5t20.5 5.5q17 0 27 -10t10 -27q0 -14 -10 -25l-69 -82q-9 -11 -22 -11zM123 567q-12 0 -19.5 7.5t-7.5 19.5q0 6 3 11.5t4 7.5l51 90q5 8 12.5 13.5t20.5 5.5q17 0 27 -10t10 -27q0 -14 -10 -25
l-69 -82q-9 -11 -22 -11z" />
    <glyph glyph-name="uni0311" unicode="&#x311;" 
d="M88 567q-14 0 -22.5 9t-8.5 22q0 8 3 14q19 37 55.5 59t84.5 22t84.5 -22t55.5 -59q3 -6 3 -14q0 -13 -8.5 -22t-22.5 -9q-19 0 -28 19q-10 23 -32.5 36t-51.5 13t-51 -13t-33 -36q-9 -19 -28 -19z" />
    <glyph glyph-name="uni0312" unicode="&#x312;" 
d="M198 575q-22 0 -36 15.5t-14 37.5v33q0 43 21.5 68t46.5 40q8 5 16 5q9 0 15.5 -6.5t6.5 -16.5q0 -13 -12 -21q-19 -11 -31 -23.5t-12 -32.5q22 0 35.5 -13.5t13.5 -34.5t-14.5 -36t-35.5 -15z" />
    <glyph glyph-name="uni031B" unicode="&#x31b;" 
d="M259 438q-12 0 -25.5 2t-33.5 6v64h49q38 0 57 18.5t19 52.5q0 17 -3.5 28.5t-3.5 22.5q0 14 10 23.5t23 9.5q23 0 36.5 -26.5t13.5 -73.5q0 -33 -14.5 -62t-46 -47t-81.5 -18z" />
    <glyph glyph-name="dotbelowcomb" unicode="&#x323;" 
d="M200 -166q-21 0 -36 15t-15 36t15 36t36 15t36 -15t15 -36t-15 -36t-36 -15z" />
    <glyph glyph-name="uni0324" unicode="&#x324;" 
d="M284 -166q-21 0 -36 15t-15 36t15 36t36 15t36 -15t15 -36t-15 -36t-36 -15zM116 -166q-21 0 -36 15t-15 36t15 36t36 15t36 -15t15 -36t-15 -36t-36 -15z" />
    <glyph glyph-name="uni0326" unicode="&#x326;" 
d="M170 -263q-9 0 -15.5 6.5t-6.5 16.5q0 14 12 21q19 11 31 24t12 32q-22 0 -35.5 13.5t-13.5 34.5t14.5 36t35.5 15q23 0 36.5 -15t13.5 -38v-33q0 -43 -21.5 -68t-46.5 -40q-8 -5 -16 -5z" />
    <glyph glyph-name="uni0327" unicode="&#x327;" 
d="M187 -221q-16 0 -40 5t-50 21q-4 2 -7.5 7t-3.5 10q0 8 4.5 14t14.5 6q3 0 6 -1t4 -2q17 -9 31.5 -13t27.5 -4q24 0 40.5 10t16.5 36q0 15 -10.5 23t-25.5 8q-10 0 -20 -2t-24 -9q-1 -1 -4 -2t-6 -1q-7 0 -12.5 4.5t-5.5 11.5q0 5 1.5 8.5t2.5 5.5l64 102h42l-46 -80
q16 4 34 4q34 0 55.5 -19t21.5 -51q0 -46 -29 -69t-82 -23z" />
    <glyph glyph-name="uni0328" unicode="&#x328;" 
d="M108 -203q-36 0 -64.5 22t-28.5 62q0 48 32 78.5t72 50.5h81q-23 -11 -49.5 -27t-44.5 -37t-18 -46q0 -22 12 -34.5t39 -12.5q11 0 19.5 2t15.5 4q6 2 9 2q22 0 22 -22q0 -10 -11 -18q-16 -11 -37 -17.5t-49 -6.5z" />
    <glyph glyph-name="uni032E" unicode="&#x32e;" 
d="M200 -182q-48 0 -84.5 22t-55.5 59q-3 6 -3 14q0 13 8.5 22t22.5 9q19 0 28 -19q11 -22 33 -35.5t51 -13.5t51.5 13.5t32.5 35.5q9 19 28 19q14 0 22.5 -9t8.5 -22q0 -8 -3 -14q-19 -37 -55.5 -59t-84.5 -22z" />
    <glyph glyph-name="uni0331" unicode="&#x331;" 
d="M83 -137q-13 0 -21.5 8.5t-8.5 21.5t8.5 21.5t21.5 8.5h234q13 0 21.5 -8.5t8.5 -21.5t-8.5 -21.5t-21.5 -8.5h-234z" />
    <glyph glyph-name="uni03A9" unicode="&#x3a9;" horiz-adv-x="790" 
d="M93 0q-16 0 -27.5 11.5t-11.5 27.5q0 17 11.5 28t27.5 11h101q-31 26 -59.5 64.5t-47 94.5t-18.5 132q0 61 22 121t64.5 109.5t103 79t136.5 29.5q77 0 137 -29.5t102.5 -79t64.5 -109.5t22 -121q0 -76 -18.5 -132t-47 -94.5t-59.5 -64.5h101q17 0 28 -11t11 -28
q0 -16 -11 -27.5t-28 -11.5h-185q-19 0 -33 13.5t-14 32.5q0 12 6.5 23t16.5 17q22 13 48 34t49.5 53t38.5 78t15 107q0 68 -29 127t-83.5 95.5t-131.5 36.5q-76 0 -131 -36.5t-84 -95.5t-29 -127q0 -61 15 -107t38.5 -78t49.5 -53t48 -34q10 -6 16.5 -17t6.5 -23
q0 -19 -14 -32.5t-33 -13.5h-185z" />
    <glyph glyph-name="pi" unicode="&#x3c0;" horiz-adv-x="634" 
d="M152 -5q-17 0 -30.5 12t-13.5 31q0 9 5 21q35 92 43.5 183t11.5 189h-22q-24 0 -41.5 -2t-34.5 -7q-2 -1 -7 -2.5t-10 -1.5q-14 0 -25.5 11t-11.5 25q0 23 21 33q18 9 45 16t64 7h430q17 0 28.5 -11.5t11.5 -28.5q0 -16 -11.5 -27.5t-28.5 -11.5h-60v-393
q0 -18 -12.5 -30.5t-30.5 -12.5t-30.5 12.5t-12.5 30.5v393h-176q-3 -103 -17 -201.5t-43 -202.5q-4 -14 -15.5 -23t-26.5 -9z" />
    <glyph glyph-name="uni05B0" unicode="&#x5b0;" 
d="M266 -145q-15 0 -24.5 9t-9.5 24t9.5 24.5t24.5 9.5t24 -9.5t9 -24.5t-9 -24t-24 -9zM266 -246q-15 0 -24.5 9t-9.5 24t9.5 24.5t24.5 9.5t24 -9.5t9 -24.5t-9 -24t-24 -9z" />
    <glyph glyph-name="uni05B1" unicode="&#x5b1;" 
d="M381 -145q-15 0 -24.5 9t-9.5 24t9.5 24.5t24.5 9.5t24 -9.5t9 -24.5t-9 -24t-24 -9zM148 -145q-15 0 -24.5 9t-9.5 24t9.5 24.5t24.5 9.5t24 -9.5t9 -24.5t-9 -24t-24 -9zM266 -145q-15 0 -24.5 9t-9.5 24t9.5 24.5t24.5 9.5t24 -9.5t9 -24.5t-9 -24t-24 -9zM206 -238
q-15 0 -24 9t-9 24t9 24.5t24 9.5t24 -9.5t9 -24.5t-9 -24t-24 -9zM381 -246q-15 0 -24.5 9t-9.5 24t9.5 24.5t24.5 9.5t24 -9.5t9 -24.5t-9 -24t-24 -9z" />
    <glyph glyph-name="uni05B2" unicode="&#x5b2;" 
d="M386 -145q-15 0 -24.5 9t-9.5 24t9.5 24.5t24.5 9.5t24 -9.5t9 -24.5t-9 -24t-24 -9zM133 -139q-16 0 -20 5.5t-4 21.5t4 22t20 6h141q16 0 19 -6t3 -22t-3 -21.5t-19 -5.5h-141zM386 -246q-15 0 -24.5 9t-9.5 24t9.5 24.5t24.5 9.5t24 -9.5t9 -24.5t-9 -24t-24 -9z" />
    <glyph glyph-name="uni05B3" unicode="&#x5b3;" 
d="M381 -145q-15 0 -24.5 9t-9.5 24t9.5 24.5t24.5 9.5t24 -9.5t9 -24.5t-9 -24t-24 -9zM148 -139q-16 0 -20 5.5t-4 21.5t4 22t20 6h131q16 0 19 -6t3 -22t-3 -21.5t-19 -5.5h-47q4 -19 7.5 -40.5t5.5 -39.5t2 -25q0 -12 -9.5 -16t-23.5 -4q-13 0 -23 4t-10 16q0 7 2 25
t5.5 39.5t7.5 40.5h-48zM381 -246q-15 0 -24.5 9t-9.5 24t9.5 24.5t24.5 9.5t24 -9.5t9 -24.5t-9 -24t-24 -9z" />
    <glyph glyph-name="uni05B4" unicode="&#x5b4;" 
d="M264 -148q-16 0 -26 9.5t-10 25.5t10 25.5t26 9.5q15 0 24.5 -9.5t9.5 -25.5t-9.5 -25.5t-24.5 -9.5z" />
    <glyph glyph-name="uni05B5" unicode="&#x5b5;" 
d="M321 -145q-15 0 -24.5 9t-9.5 24t9.5 24.5t24.5 9.5t24 -9.5t9 -24.5t-9 -24t-24 -9zM208 -145q-15 0 -24.5 9t-9.5 24t9.5 24.5t24.5 9.5t24 -9.5t9 -24.5t-9 -24t-24 -9z" />
    <glyph glyph-name="uni05B6" unicode="&#x5b6;" 
d="M321 -145q-15 0 -24.5 9t-9.5 24t9.5 24.5t24.5 9.5t24 -9.5t9 -24.5t-9 -24t-24 -9zM208 -145q-15 0 -24.5 9t-9.5 24t9.5 24.5t24.5 9.5t24 -9.5t9 -24.5t-9 -24t-24 -9zM264 -238q-15 0 -24 9t-9 24t9 24.5t24 9.5t24 -9.5t9 -24.5t-9 -24t-24 -9z" />
    <glyph glyph-name="uni05B7" unicode="&#x5b7;" 
d="M193 -139q-16 0 -20 5.5t-4 21.5t4 22t20 6h141q16 0 19 -6t3 -22t-3 -21.5t-19 -5.5h-141z" />
    <glyph glyph-name="uni05B8" unicode="&#x5b8;" 
d="M199 -139q-16 0 -20 5.5t-4 21.5t4 22t20 6h131q16 0 19 -6t3 -22t-3 -21.5t-19 -5.5h-46q6 -26 10 -55.5t4 -39.5q0 -12 -9.5 -16t-23.5 -4q-13 0 -23 4t-10 16q0 10 4 39.5t10 55.5h-47z" />
    <glyph glyph-name="uni05B9" unicode="&#x5b9;" 
d="M251 676q-17 0 -27.5 10.5t-10.5 26.5q0 17 10.5 27t27.5 10q16 0 26 -10t10 -27q0 -16 -10 -26.5t-26 -10.5z" />
    <glyph glyph-name="uni05BA" unicode="&#x5ba;" 
d="M251 676q-17 0 -27.5 10.5t-10.5 26.5q0 17 10.5 27t27.5 10q16 0 26 -10t10 -27q0 -16 -10 -26.5t-26 -10.5z" />
    <glyph glyph-name="uni05BB" unicode="&#x5bb;" 
d="M260 -142q-15 0 -24.5 9t-9.5 24t9.5 24.5t24.5 9.5t24 -9.5t9 -24.5t-9 -24t-24 -9zM330 -214q-15 0 -24.5 9t-9.5 24t9.5 24.5t24.5 9.5t24 -9.5t9 -24.5t-9 -24t-24 -9zM399 -286q-15 0 -24 9t-9 24t9 24.5t24 9.5t24 -9.5t9 -24.5t-9 -24t-24 -9z" />
    <glyph glyph-name="uni05BC" unicode="&#x5bc;" 
d="M251 263q-17 0 -27.5 10.5t-10.5 26.5q0 17 10.5 27t27.5 10q16 0 26 -10t10 -27q0 -16 -10 -26.5t-26 -10.5z" />
    <glyph glyph-name="uni05BE" unicode="&#x5be;" horiz-adv-x="326" 
d="M84 510q-16 0 -28 12t-12 28q0 17 12 28.5t28 11.5h157q17 0 29 -11.5t12 -28.5q0 -16 -12 -28t-29 -12h-157z" />
    <glyph glyph-name="uni05C1" unicode="&#x5c1;" 
d="M251 676q-17 0 -27.5 10.5t-10.5 26.5q0 17 10.5 27t27.5 10q16 0 26 -10t10 -27q0 -16 -10 -26.5t-26 -10.5z" />
    <glyph glyph-name="uni05C2" unicode="&#x5c2;" 
d="M251 676q-17 0 -27.5 10.5t-10.5 26.5q0 17 10.5 27t27.5 10q16 0 26 -10t10 -27q0 -16 -10 -26.5t-26 -10.5z" />
    <glyph glyph-name="uni05C7" unicode="&#x5c7;" 
d="M219 -123q-11 0 -13.5 4t-2.5 15t2.5 15.5t13.5 4.5h91q11 0 13 -4.5t2 -15.5t-2 -15t-13 -4h-32q4 -17 7 -38t3 -27q0 -9 -7 -11.5t-16 -2.5t-16 2.5t-7 11.5q0 6 3 27t7 38h-33z" />
    <glyph glyph-name="uni05D0" unicode="&#x5d0;" horiz-adv-x="658" 
d="M86 1q-16 7 -21 23t0 32l112 356l-94 109q-11 13 -10 31.5t14 30.5q17 14 35.5 11t29.5 -16l240 -277l124 267q9 20 27 24t34 -4q19 -9 22.5 -26.5t-4.5 -34.5l-142 -298l138 -159q12 -14 9.5 -33t-16.5 -31q-13 -11 -31.5 -8.5t-31.5 16.5l-277 321l-95 -309
q-7 -22 -27 -27t-36 2z" />
    <glyph glyph-name="uni05D1" unicode="&#x5d1;" horiz-adv-x="641" 
d="M93 0q-16 0 -28 12t-12 28q0 17 12 28.5t28 11.5h338v297q0 80 -30 109.5t-108 29.5q-43 0 -87.5 -6.5t-100.5 -17.5q-17 -3 -31.5 7t-17.5 26q-2 16 8.5 29t27.5 17q55 13 106.5 19t98.5 6q124 0 174.5 -51.5t50.5 -167.5v-297h51q17 0 29 -11.5t12 -28.5q0 -16 -12 -28
t-29 -12h-480z" />
    <glyph glyph-name="uni05D2" unicode="&#x5d2;" horiz-adv-x="407" 
d="M73 -3q-18 -1 -33 8t-19 27q-4 20 7 34.5t30 16.5q58 6 100 36t72 79v246q0 47 -15 60.5t-44 13.5q-11 0 -28.5 -4t-31.5 -10q-10 -4 -23.5 1t-18.5 20q-4 14 0 28t20 22t41 14t45 6q24 0 50 -4t47.5 -19t35 -47t13.5 -88v-396q0 -19 -13.5 -32.5t-32.5 -13.5t-32 13.5
t-13 32.5v66q-17 -22 -40.5 -47t-53 -43.5t-63.5 -19.5z" />
    </font>
</defs>
</svg>
